<?xml version="1.0" standalone="no"?>
<!DOCTYPE svg PUBLIC "-//W3C//DTD SVG 1.1//EN" "http://www.w3.org/Graphics/SVG/1.1/DTD/svg11.dtd" >
<svg xmlns="http://www.w3.org/2000/svg" xmlns:xlink="http://www.w3.org/1999/xlink" version="1.1">
<metadata>
Created by FontForge 20190801 at Thu Apr 23 11:47:25 2015
 By Jimmy Wärting
Copyright (c) 2011 by Wolfgang Homola, distributed by TypeTogether. All rights reserved.
</metadata>
<defs>
<font id="SoleilSb" horiz-adv-x="550" >
  <font-face 
    font-family="SoleilSb"
    font-weight="400"
    font-stretch="normal"
    units-per-em="1000"
    panose-1="2 0 5 3 0 0 0 2 0 4"
    ascent="753"
    descent="-247"
    x-height="514"
    cap-height="700"
    bbox="-210 -324 1298 1115"
    underline-thickness="50"
    underline-position="-100"
    unicode-range="U+000D-FB06"
  />
<missing-glyph 
d="M307 136h-74v75h74v-75zM51 665h448v-665h-448v665zM119 600v-535h312v535h-312zM305 259l-70 -0.000976562v88c28 9.33301 49.167 19.166 63.5 29.499s21.5 25.5 21.5 45.5c0 12.667 -4.33301 23.5 -13 32.5s-20 13.5 -34 13.5c-14.667 0 -26.167 -4.66699 -34.5 -14
s-12.5 -21.666 -12.5 -36.999v-9h-67v6c0 32.667 10.667 59.5 32 80.5s48.666 31.5 81.999 31.5c32.667 0 59.667 -10.667 81 -32s32 -44.666 32 -69.999c0 -30 -7.16699 -53.167 -21.5 -69.5s-34.166 -30.833 -59.499 -43.5v-52z" />
    <glyph glyph-name="ff" unicode="ff" horiz-adv-x="699" 
d="M386 735l-36 -95c-22.667 10.667 -45.667 16 -69 16c-22.667 0 -39 -5.66699 -49 -17c-12.667 -12.667 -19 -38.667 -19 -78v-46h110v-102h-110v-413h-121v413h-57v102h57v55c0 60 11.667 105.333 35 136c28 37.333 75.333 56 142 56c40.667 0 79.667 -9 117 -27z
M735 735l-36 -95c-22.667 10.667 -45.667 16 -69 16c-22.667 0 -39 -5.66699 -49 -17c-12.667 -12.667 -19 -38.667 -19 -78v-46h133v-102h-133v-413h-121v413h-57v102h57v55c0 60 11.667 105.333 35 136c28 37.333 75.333 56 142 56c40.667 0 79.667 -9 117 -27z" />
    <glyph glyph-name="fi" unicode="fi" horiz-adv-x="620" 
d="M346 413h-133v-413h-121v413h-57v102h57v55c0 60 11.667 105.333 35 136c28 37.333 75.333 56 142 56c28 0 56 -4.66699 84 -14l-19 -101c-16 6 -33.667 9 -53 9c-22.667 0 -39 -5.66699 -49 -17c-12.667 -12.667 -19 -38.667 -19 -78v-46h133v-102zM545 0h-121v515h121
v-515zM545 599h-121v113h121v-113z" />
    <glyph glyph-name="fl" unicode="fl" horiz-adv-x="620" 
d="M346 413h-133v-413h-121v413h-57v102h57v55c0 60 11.667 105.333 35 136c28 37.333 75.333 56 142 56c28 0 56 -4.66699 84 -14l-19 -101c-16 6 -33.667 9 -53 9c-22.667 0 -39 -5.66699 -49 -17c-12.667 -12.667 -19 -38.667 -19 -78v-46h133v-102zM545 750v-750h-121
v750h121z" />
    <glyph glyph-name="ffi" unicode="ffi" horiz-adv-x="969" 
d="M386 735l-36 -95c-22.667 10.667 -45.667 16 -69 16c-22.667 0 -39 -5.66699 -49 -17c-12.667 -12.667 -19 -38.667 -19 -78v-46h110v-102h-110v-413h-121v413h-57v102h57v55c0 60 11.667 105.333 35 136c28 37.333 75.333 56 142 56c40.667 0 79.667 -9 117 -27z
M695 413h-133v-413h-121v413h-57v102h57v55c0 60 11.667 105.333 35 136c28 37.333 75.333 56 142 56c28 0 56 -4.66699 84 -14l-19 -101c-16 6 -33.667 9 -53 9c-22.667 0 -39 -5.66699 -49 -17c-12.667 -12.667 -19 -38.667 -19 -78v-46h133v-102zM894 0h-121v515h121
v-515zM894 599h-121v113h121v-113z" />
    <glyph glyph-name="ffl" unicode="ffl" horiz-adv-x="969" 
d="M386 735l-36 -95c-22.667 10.667 -45.667 16 -69 16c-22.667 0 -39 -5.66699 -49 -17c-12.667 -12.667 -19 -38.667 -19 -78v-46h110v-102h-110v-413h-121v413h-57v102h57v55c0 60 11.667 105.333 35 136c28 37.333 75.333 56 142 56c40.667 0 79.667 -9 117 -27z
M695 413h-133v-413h-121v413h-57v102h57v55c0 60 11.667 105.333 35 136c28 37.333 75.333 56 142 56c28 0 56 -4.66699 84 -14l-19 -101c-16 6 -33.667 9 -53 9c-22.667 0 -39 -5.66699 -49 -17c-12.667 -12.667 -19 -38.667 -19 -78v-46h133v-102zM894 750v-750h-121v750
h121z" />
    <glyph glyph-name="f_k" unicode="fk" horiz-adv-x="887" 
d="M346 413h-133v-413h-121v413h-57v102h57v55c0 60 11.667 105.333 35 136c28 37.333 75.333 56 142 56c28 0 56 -4.66699 84 -14l-19 -101c-16 6 -33.667 9 -53 9c-22.667 0 -39 -5.66699 -49 -17c-12.667 -12.667 -19 -38.667 -19 -78v-46h133v-102zM886 0h-148l-130 207
l-63 -73v-134h-121v750h121v-463l2 -1l183 229h141l-182 -213z" />
    <glyph glyph-name="f_b" unicode="fb" horiz-adv-x="986" 
d="M346 413h-133v-413h-121v413h-57v102h57v55c0 60 11.667 105.333 35 136c28 37.333 75.333 56 142 56c28 0 56 -4.66699 84 -14l-19 -101c-16 6 -33.667 9 -53 9c-22.667 0 -39 -5.66699 -49 -17c-12.667 -12.667 -19 -38.667 -19 -78v-46h133v-102zM424 750h121v-294
c18 23.333 41.333 41 70 53s57.667 18 87 18c70 0 128.667 -26.167 176 -78.5s71 -116.5 71 -192.5c0 -72.667 -23.5 -135.5 -70.5 -188.5s-106.5 -79.5 -178.5 -79.5c-30 0 -59.667 6 -89 18s-53 30 -71 54l-6 -60h-110v750zM545 341l-0.000976562 -181.999
c34 -43.333 78 -65 132 -65c47.333 0 84 16.667 110 50s39 71.666 39 114.999c0 44 -13.667 82 -41 114s-62.666 48 -105.999 48c-26.667 0 -52.167 -6.66699 -76.5 -20s-43.5 -33.333 -57.5 -60z" />
    <glyph glyph-name="f_h" unicode="fh" horiz-adv-x="962" 
d="M346 413h-133v-413h-121v413h-57v102h57v55c0 60 11.667 105.333 35 136c28 37.333 75.333 56 142 56c28 0 56 -4.66699 84 -14l-19 -101c-16 6 -33.667 9 -53 9c-22.667 0 -39 -5.66699 -49 -17c-12.667 -12.667 -19 -38.667 -19 -78v-46h133v-102zM545 750v-305
c40 54.667 93 82 159 82c60 0 107.333 -22 142 -66c30.667 -40.667 46 -105 46 -193v-268h-121v259c0 59.333 -6.66699 100.333 -20 123c-15.333 26 -41.333 39 -78 39c-24 0 -47.5 -7.16699 -70.5 -21.5s-42.167 -33.5 -57.5 -57.5v-342h-121v750h121z" />
    <glyph glyph-name="f_t" unicode="ft" horiz-adv-x="711" 
d="M386 735l-36 -95c-22.667 10.667 -45.667 16 -69 16c-22.667 0 -39 -5.66699 -49 -17c-12.667 -12.667 -19 -38.667 -19 -78v-46h116v-102h-116v-413h-121v413h-57v102h57v55c0 60 11.667 105.333 35 136c28 37.333 75.333 56 142 56c40.667 0 79.667 -9 117 -27z
M685 413h-135.999v-213c0 -18 0.333008 -32.333 1 -43c4 -42 22.667 -63 56 -63c20.667 0 39.667 4.66699 57 14l36 -92c-32 -18 -69.333 -27 -112 -27c-37.333 0 -68.333 8.66699 -93 26s-42.334 41.333 -53.001 72c-8.66699 23.333 -13 55 -13 95v231h-55v102h55l13 118
h108v-118h136v-102z" />
    <glyph glyph-name="f_j" unicode="fj" horiz-adv-x="627" 
d="M346 413h-133v-413h-121v413h-57v102h57v55c0 60 11.667 105.333 35 136c28 37.333 75.333 56 142 56c28 0 56 -4.66699 84 -14l-19 -101c-16 6 -33.667 9 -53 9c-22.667 0 -39 -5.66699 -49 -17c-12.667 -12.667 -19 -38.667 -19 -78v-46h133v-102zM552 599h-121v113
h121v-113zM552 515l-0.000976562 -555c0 -50.667 -8.33301 -89 -25 -115c-26 -46.667 -73.333 -70 -142 -70c-39.333 0 -74.666 7.33301 -105.999 22l33 96c18.667 -8.66699 38.334 -13 59.001 -13c25.333 0 41.666 7.83301 48.999 23.5s11 39.167 11 70.5v541h121z" />
    <glyph glyph-name="f_f_j" unicode="ffj" horiz-adv-x="976" 
d="M386 735l-36 -95c-22.667 10.667 -45.667 16 -69 16c-22.667 0 -39 -5.66699 -49 -17c-12.667 -12.667 -19 -38.667 -19 -78v-46h110v-102h-110v-413h-121v413h-57v102h57v55c0 60 11.667 105.333 35 136c28 37.333 75.333 56 142 56c40.667 0 79.667 -9 117 -27z
M695 413h-133v-413h-121v413h-57v102h57v55c0 60 11.667 105.333 35 136c28 37.333 75.333 56 142 56c28 0 56 -4.66699 84 -14l-19 -101c-16 6 -33.667 9 -53 9c-22.667 0 -39 -5.66699 -49 -17c-12.667 -12.667 -19 -38.667 -19 -78v-46h133v-102zM901 599h-121v113h121
v-113zM901 515l-0.000976562 -555c0 -50.667 -8.33301 -89 -25 -115c-26 -46.667 -73.333 -70 -142 -70c-39.333 0 -74.666 7.33301 -105.999 22l33 96c18.667 -8.66699 38.334 -13 59.001 -13c25.333 0 41.666 7.83301 48.999 23.5s11 39.167 11 70.5v541h121z" />
    <glyph glyph-name="f_f_k" unicode="ffk" horiz-adv-x="1236" 
d="M386 735l-36 -95c-22.667 10.667 -45.667 16 -69 16c-22.667 0 -39 -5.66699 -49 -17c-12.667 -12.667 -19 -38.667 -19 -78v-46h110v-102h-110v-413h-121v413h-57v102h57v55c0 60 11.667 105.333 35 136c28 37.333 75.333 56 142 56c40.667 0 79.667 -9 117 -27z
M695 413h-133v-413h-121v413h-57v102h57v55c0 60 11.667 105.333 35 136c28 37.333 75.333 56 142 56c28 0 56 -4.66699 84 -14l-19 -101c-16 6 -33.667 9 -53 9c-22.667 0 -39 -5.66699 -49 -17c-12.667 -12.667 -19 -38.667 -19 -78v-46h133v-102zM1235 0h-148l-130 207
l-63 -73v-134h-121v750h121v-463l2 -1l183 229h141l-182 -213z" />
    <glyph glyph-name="f_f_b" unicode="ffb" horiz-adv-x="1335" 
d="M386 735l-36 -95c-22.667 10.667 -45.667 16 -69 16c-22.667 0 -39 -5.66699 -49 -17c-12.667 -12.667 -19 -38.667 -19 -78v-46h110v-102h-110v-413h-121v413h-57v102h57v55c0 60 11.667 105.333 35 136c28 37.333 75.333 56 142 56c40.667 0 79.667 -9 117 -27z
M695 413h-133v-413h-121v413h-57v102h57v55c0 60 11.667 105.333 35 136c28 37.333 75.333 56 142 56c28 0 56 -4.66699 84 -14l-19 -101c-16 6 -33.667 9 -53 9c-22.667 0 -39 -5.66699 -49 -17c-12.667 -12.667 -19 -38.667 -19 -78v-46h133v-102zM773 750h121v-294
c18 23.333 41.333 41 70 53s57.667 18 87 18c70 0 128.667 -26.167 176 -78.5s71 -116.5 71 -192.5c0 -72.667 -23.5 -135.5 -70.5 -188.5s-106.5 -79.5 -178.5 -79.5c-30 0 -59.667 6 -89 18s-53 30 -71 54l-6 -60h-110v750zM894 341l-0.000976562 -181.999
c34 -43.333 78 -65 132 -65c47.333 0 84 16.667 110 50s39 71.666 39 114.999c0 44 -13.667 82 -41 114s-62.666 48 -105.999 48c-26.667 0 -52.167 -6.66699 -76.5 -20s-43.5 -33.333 -57.5 -60z" />
    <glyph glyph-name="f_f_h" unicode="ffh" horiz-adv-x="1311" 
d="M386 735l-36 -95c-22.667 10.667 -45.667 16 -69 16c-22.667 0 -39 -5.66699 -49 -17c-12.667 -12.667 -19 -38.667 -19 -78v-46h110v-102h-110v-413h-121v413h-57v102h57v55c0 60 11.667 105.333 35 136c28 37.333 75.333 56 142 56c40.667 0 79.667 -9 117 -27z
M695 413h-133v-413h-121v413h-57v102h57v55c0 60 11.667 105.333 35 136c28 37.333 75.333 56 142 56c28 0 56 -4.66699 84 -14l-19 -101c-16 6 -33.667 9 -53 9c-22.667 0 -39 -5.66699 -49 -17c-12.667 -12.667 -19 -38.667 -19 -78v-46h133v-102zM894 750v-305
c40 54.667 93 82 159 82c60 0 107.333 -22 142 -66c30.667 -40.667 46 -105 46 -193v-268h-121v259c0 59.333 -6.66699 100.333 -20 123c-14.667 26 -40.667 39 -78 39c-24 0 -47.5 -7.16699 -70.5 -21.5s-42.167 -33.5 -57.5 -57.5v-342h-121v750h121z" />
    <glyph glyph-name="f_f_t" unicode="fft" horiz-adv-x="1060" 
d="M386 735l-36 -95c-22.667 10.667 -45.667 16 -69 16c-22.667 0 -39 -5.66699 -49 -17c-12.667 -12.667 -19 -38.667 -19 -78v-46h110v-102h-110v-413h-121v413h-57v102h57v55c0 60 11.667 105.333 35 136c28 37.333 75.333 56 142 56c40.667 0 79.667 -9 117 -27z
M735 735l-36 -95c-22.667 10.667 -45.667 16 -69 16c-22.667 0 -39 -5.66699 -49 -17c-12.667 -12.667 -19 -38.667 -19 -78v-46h116v-102h-116v-413h-121v413h-57v102h57v55c0 60 11.667 105.333 35 136c28 37.333 75.333 56 142 56c40.667 0 79.667 -9 117 -27zM1034 413
h-136.001v-213c0 -18 0.333008 -32.333 1 -43c4 -42 22.667 -63 56 -63c20.667 0 39.667 4.66699 57 14l36 -92c-32 -18 -69.333 -27 -112 -27c-37.333 0 -68.666 8.66699 -93.999 26s-43 41.333 -53 72c-8.66699 23.333 -13 55 -13 95v231h-54v102h54l13 118h109v-118h136
v-102z" />
    <glyph glyph-name="f_iacute" unicode="f&#xed;" horiz-adv-x="620" 
d="M346 413h-133v-413h-121v413h-57v102h57v55c0 60 11.667 105.333 35 136c28 37.333 75.333 56 142 56c28 0 56 -4.66699 84 -14l-19 -101c-16 6 -33.667 9 -53 9c-22.667 0 -39 -5.66699 -49 -17c-12.667 -12.667 -19 -38.667 -19 -78v-46h133v-102zM647 743l-145 -172
l-75 59l136 179zM545 0h-121v515h121v-515z" />
    <glyph glyph-name="t_t" unicode="tt" horiz-adv-x="724" 
d="M336 413h-136.001v-213c0 -18 0.333008 -32.333 1 -43c4 -42 22.667 -63 56 -63c20.667 0 39.667 4.66699 57 14l36 -92c-32 -18 -69.333 -27 -112 -27c-37.333 0 -68.666 8.66699 -93.999 26s-43 41.333 -53 72c-8.66699 23.333 -13 55 -13 95v231h-64v102h64l13 118
h109v-118h136v-102zM697.999 413h-136.001v-213c0 -18 0.333008 -32.333 1 -43c4 -42 22.667 -63 56 -63c20.667 0 39.667 4.66699 57 14l36 -92c-32 -18 -69.333 -27 -112 -27c-37.333 0 -68.666 8.66699 -93.999 26s-43 41.333 -53 72c-8.66699 23.333 -13 55 -13 95v231
h-64v102h64l13 118h109v-118h136v-102z" />
    <glyph glyph-name=".notdef" 
d="M307 136h-74v75h74v-75zM51 665h448v-665h-448v665zM119 600v-535h312v535h-312zM305 259l-70 -0.000976562v88c28 9.33301 49.167 19.166 63.5 29.499s21.5 25.5 21.5 45.5c0 12.667 -4.33301 23.5 -13 32.5s-20 13.5 -34 13.5c-14.667 0 -26.167 -4.66699 -34.5 -14
s-12.5 -21.666 -12.5 -36.999v-9h-67v6c0 32.667 10.667 59.5 32 80.5s48.666 31.5 81.999 31.5c32.667 0 59.667 -10.667 81 -32s32 -44.666 32 -69.999c0 -30 -7.16699 -53.167 -21.5 -69.5s-34.166 -30.833 -59.499 -43.5v-52z" />
    <glyph glyph-name=".null" horiz-adv-x="0" 
 />
    <glyph glyph-name=".null" horiz-adv-x="0" 
 />
    <glyph glyph-name="CR" unicode="&#xd;" horiz-adv-x="500" 
 />
    <glyph glyph-name="space" unicode=" " horiz-adv-x="250" 
 />
    <glyph glyph-name="exclam" unicode="!" horiz-adv-x="323" 
d="M230 700v-119l-10 -354h-117l-10 354v119h137zM228 0h-133v136h133v-136z" />
    <glyph glyph-name="quotedbl" unicode="&#x22;" horiz-adv-x="494" 
d="M190 421h-109l-9 279h127zM413 421h-109l-9 279h127z" />
    <glyph glyph-name="numbersign" unicode="#" horiz-adv-x="648" 
d="M324 0l32 175h-129l-32 -175h-98l32 175h-94v88h110l26 140h-75v87h91l32 175h98l-32 -175h129l32 175h98l-32 -175h101v-87h-117l-26 -140h81v-88h-97l-32 -175h-98zM269 403l-26 -140h129l26 140h-129z" />
    <glyph glyph-name="dollar" unicode="$" 
d="M18 96l80.002 75.9951c55.333 -54 109.666 -81 162.999 -81c38 0 68.833 8.33301 92.5 25s35.5 41 35.5 73c0 7.33301 -0.833008 14.333 -2.5 21s-4.5 12.834 -8.5 18.501s-7.66699 10.667 -11 15s-9 8.83301 -17 13.5s-14 8.33398 -18 11.001
s-11.5 6.33398 -22.5 11.001s-18.667 7.83398 -23 9.50098s-13 4.83398 -26 9.50098s-21.5 7.66699 -25.5 9c-26 9.33301 -47.333 18 -64 26s-34.334 19.167 -53.001 33.5s-32.667 31.833 -42 52.5s-14 44.667 -14 72c0 52.667 17.167 95.334 51.5 128.001
s78.5 51.334 132.5 56.001v95h75v-97c57.333 -7.33301 113.666 -31 168.999 -71l-69 -84c-45.333 37.333 -93.333 56 -144 56c-26 0 -48.667 -6.83301 -68 -20.5s-29 -33.167 -29 -58.5c0 -6 0.833008 -11.5 2.5 -16.5s4.33398 -9.83301 8.00098 -14.5
s7.16699 -8.83398 10.5 -12.501s8.5 -7.33398 15.5 -11.001s12.833 -6.83398 17.5 -9.50098s11.667 -5.83398 21 -9.50098s16.833 -6.5 22.5 -8.5s14 -5 25 -9s19.167 -7 24.5 -9c27.333 -10 50 -19.333 68 -28s37 -20.667 57 -36s35 -34 45 -56s15 -47.667 15 -77
c0 -57.333 -18.5 -103.666 -55.5 -138.999s-83.833 -57.333 -140.5 -66v-99h-76v95c-80 4.66699 -154 40.334 -222 107.001z" />
    <glyph glyph-name="percent" unicode="%" horiz-adv-x="853" 
d="M645 715l64 -47l-498 -683l-64 47zM222 706c46.667 0 86.5 -15.833 119.5 -47.5s49.5 -71.167 49.5 -118.5s-16.5 -86.833 -49.5 -118.5s-72.833 -47.5 -119.5 -47.5c-47.333 0 -87.5 15.833 -120.5 47.5s-49.5 71.167 -49.5 118.5s16.5 86.833 49.5 118.5
s73.167 47.5 120.5 47.5zM222 618c-21.333 0 -38.833 -7.33301 -52.5 -22s-20.5 -33.334 -20.5 -56.001s6.83301 -41.334 20.5 -56.001s31.167 -22 52.5 -22c20.667 0 37.834 7.33301 51.501 22s20.5 33.334 20.5 56.001s-6.83301 41.334 -20.5 56.001
s-30.834 22 -51.501 22zM632 326c46.667 0 86.5 -15.833 119.5 -47.5s49.5 -71.167 49.5 -118.5s-16.5 -86.833 -49.5 -118.5s-72.833 -47.5 -119.5 -47.5c-47.333 0 -87.5 15.833 -120.5 47.5s-49.5 71.167 -49.5 118.5s16.5 86.833 49.5 118.5s73.167 47.5 120.5 47.5z
M632 238c-21.333 0 -38.833 -7.33301 -52.5 -22s-20.5 -33.334 -20.5 -56.001s6.83301 -41.334 20.5 -56.001s31.167 -22 52.5 -22c20.667 0 37.834 7.33301 51.501 22s20.5 33.334 20.5 56.001s-6.83301 41.334 -20.5 56.001s-30.834 22 -51.501 22z" />
    <glyph glyph-name="ampersand" unicode="&#x26;" horiz-adv-x="687" 
d="M700 56l-68.999 -79.998l-122 108c-48.667 -64 -118.334 -96 -209.001 -96c-65.333 0 -122.166 21.833 -170.499 65.5s-72.5 95.834 -72.5 156.501c0 36.667 10 71.167 30 103.5s47.667 59.166 83 80.499c-42 45.333 -63 92 -63 140c0 50.667 21 93 63 127
s89.667 51 143 51c47.333 0 88 -12.5 122 -37.5s57 -59.167 69 -102.5l-109 -32c-10.667 45.333 -39 68 -85 68c-24 0 -44 -7.33301 -60 -22s-24 -33.334 -24 -56.001c0 -21.333 8 -42.333 24 -63s43.333 -48.334 82 -83.001l-67 -80l-21 19
c-45.333 -24.667 -68 -61 -68 -109c0 -34 12.833 -62.833 38.5 -86.5s56.5 -35.5 92.5 -35.5c51.333 0 92.666 21 123.999 63l-76 69l67 79z" />
    <glyph glyph-name="quotesingle" unicode="'" horiz-adv-x="271" 
d="M190 421h-109l-9 279h127z" />
    <glyph glyph-name="parenleft" unicode="(" horiz-adv-x="362" 
d="M366 -90l-47 -85c-186.667 114 -280 274.333 -280 481c0 204 93 364 279 480l49 -86c-136.667 -88.667 -205 -220 -205 -394c0 -177.333 68 -309.333 204 -396z" />
    <glyph glyph-name="parenright" unicode=")" horiz-adv-x="362" 
d="M323 306c0 -205.333 -93.333 -365.667 -280 -481l-47 86c136 87.333 204 219 204 395c0 174 -68.333 305.333 -205 394l49 86c186 -116 279 -276 279 -480z" />
    <glyph glyph-name="asterisk" unicode="*" horiz-adv-x="499" 
d="M437 535l-125 -22l91 -93l-91 -65l-62 116l-63 -116l-90 65l89 93l-123 22l34 106l114 -55l-17 126h111l-17 -127l115 56z" />
    <glyph glyph-name="plus" unicode="+" 
d="M325 561v-199h200v-102h-200v-200h-102v200h-199v102h199v199h102z" />
    <glyph glyph-name="comma" unicode="," horiz-adv-x="250" 
d="M192 136l-70 -265h-115l54 265h131z" />
    <glyph glyph-name="hyphen" unicode="-" horiz-adv-x="452" 
d="M363 234h-274v103h274v-103z" />
    <glyph glyph-name="period" unicode="." horiz-adv-x="250" 
d="M191 0h-133v136h133v-136z" />
    <glyph glyph-name="slash" unicode="/" horiz-adv-x="388" 
d="M392 725l-291 -784l-101 40l291 784z" />
    <glyph glyph-name="zero" unicode="0" horiz-adv-x="557" 
d="M278 677c77.333 0 137.166 -30.5 179.499 -91.5s63.5 -145.5 63.5 -253.5c0 -107.333 -21.167 -191.5 -63.5 -252.5s-102.166 -91.5 -179.499 -91.5c-76.667 0 -136.167 30.5 -178.5 91.5s-63.5 145.167 -63.5 252.5c0 108 21.167 192.5 63.5 253.5
s101.833 91.5 178.5 91.5zM278 570c-78.667 0 -118 -79.333 -118 -238c0 -78.667 10.167 -138 30.5 -178s49.5 -60 87.5 -60c79.333 0 119 79.333 119 238s-39.667 238 -119 238z" />
    <glyph glyph-name="one" unicode="1" horiz-adv-x="353" 
d="M268 0h-122v522c-12 -6 -30.167 -14 -54.5 -24s-38.5 -16 -42.5 -18v111c46.667 23.333 93 48 139 74h80v-665z" />
    <glyph glyph-name="two" unicode="2" horiz-adv-x="518" 
d="M492 104l-0.000976562 -104h-436v97c92 96 168.333 186.333 229 271c36 52 54 94 54 126c0 24 -8.66699 43 -26 57s-38.333 21 -63 21c-25.333 0 -46.166 -8.83301 -62.499 -26.5s-24.833 -41.167 -25.5 -70.5l-121 21c4.66699 53.333 27.667 96.833 69 130.5
s89.333 50.5 144 50.5c56.667 0 105.667 -16.667 147 -50s62 -77 62 -131c0 -57.333 -23.333 -119 -70 -185c-41.333 -58.667 -99.333 -127.667 -174 -207h273z" />
    <glyph glyph-name="three" unicode="3" horiz-adv-x="529" 
d="M167 285l-0.00195312 107.999c34 0 62.333 2.66699 85 8c23.333 6 42 16.833 56 32.5s21 34.167 21 55.5c0 24 -8.66699 43.833 -26 59.5s-40.333 23.5 -69 23.5c-22.667 0 -42.167 -6.16699 -58.5 -18.5s-27.5 -29.5 -33.5 -51.5l-103 45
c13.333 40 37.833 71.667 73.5 95s76.5 35 122.5 35c61.333 0 112.833 -16.333 154.5 -49s62.5 -75.667 62.5 -129c0 -28.667 -7.5 -56.167 -22.5 -82.5s-34.833 -46.166 -59.5 -59.499c34 -12 61.5 -33 82.5 -63s31.5 -63.667 31.5 -101
c0 -62.667 -22.333 -112.5 -67 -149.5s-99.667 -55.5 -165 -55.5c-47.333 0 -91.166 11.167 -131.499 33.5s-70.166 53.833 -89.499 94.5l100 50c23.333 -48.667 62.666 -73 117.999 -73c30.667 0 56.667 8.33301 78 25s32 40.334 32 71.001
c0 31.333 -12.167 56.166 -36.5 74.499s-55.166 27.5 -92.499 27.5c-22.667 0 -43.667 -2 -63 -6z" />
    <glyph glyph-name="four" unicode="4" horiz-adv-x="547" 
d="M432 0h-120v164h-289v113l287 388h122v-397h96v-104h-96v-164zM153 268h159v234c-72 -109.333 -125 -187.333 -159 -234z" />
    <glyph glyph-name="five" unicode="5" horiz-adv-x="509" 
d="M448 665l0.00390625 -105h-240c-2 -52 -5.66699 -104.333 -11 -157c25.333 11.333 54 17 86 17c55.333 0 102 -19.833 140 -59.5s57 -87.834 57 -144.501c0 -65.333 -21.667 -119.666 -65 -162.999s-98 -65 -164 -65c-46.667 0 -90 10.833 -130 32.5
s-70 51.834 -90 90.501l101 53c21.333 -47.333 58.666 -71 111.999 -71c34 0 61.167 11.167 81.5 33.5s30.5 49.833 30.5 82.5c0 31.333 -10.333 57 -31 77s-47.334 30 -80.001 30c-38.667 0 -69.334 -13.667 -92.001 -41l-82 53
c9.33301 99.333 16.666 211.666 21.999 336.999h355z" />
    <glyph glyph-name="six" unicode="6" horiz-adv-x="546" 
d="M378 705l44.0029 -99.001c-62.667 -28 -114.5 -59.833 -155.5 -95.5s-70.167 -79.5 -87.5 -131.5c35.333 32 78 48 128 48c59.333 0 108.166 -20.5 146.499 -61.5s57.5 -91.167 57.5 -150.5c0 -64 -21 -117.833 -63 -161.5s-95.333 -65.5 -160 -65.5
c-76.667 0 -137.834 26.333 -183.501 79s-68.5 116.334 -68.5 191.001c0 102 32.167 192 96.5 270s146.166 137 245.499 177zM158.003 255.999c0 -47.333 10 -86.501 30 -117.501s51 -46.5 93 -46.5c32 0 57.667 11.333 77 34s29 50.667 29 84c0 34.667 -10 62.5 -30 83.5
s-46 31.5 -78 31.5c-24 0 -47 -6.16699 -69 -18.5s-39.333 -29.166 -52 -50.499z" />
    <glyph glyph-name="seven" unicode="7" horiz-adv-x="467" 
d="M449 665l-0.00195312 -81c-97.333 -203.333 -188.666 -407.333 -273.999 -612l-111 51c26.667 62.667 55.834 128 87.501 196s64.5 137.167 98.5 207.5s55.333 114.5 64 132.5h-304v106h439z" />
    <glyph glyph-name="eight" unicode="8" horiz-adv-x="563" 
d="M413 350c66.667 -38.667 99.999 -93.334 99.999 -164.001c0 -56 -21.667 -103 -65 -141s-99 -57 -167 -57c-67.333 0 -122.666 19 -165.999 57s-65 85 -65 141c0 70.667 33.333 125.334 100 164.001c-53.333 32.667 -80 80.334 -80 143.001c0 52 19.667 95.667 59 131
s90 53 152 53c62.667 0 113.667 -17.667 153 -53s59 -79 59 -131c0 -62.667 -26.667 -110.334 -80 -143.001zM280.999 294c-30 0 -55.501 -9.83301 -76.501 -29.5s-31.5 -43.5 -31.5 -71.5c0 -29.333 10.333 -53.5 31 -72.5s46.334 -28.5 77.001 -28.5s56.5 9.5 77.5 28.5
s31.5 43.167 31.5 72.5c0 28 -10.5 51.833 -31.5 71.5s-46.833 29.5 -77.5 29.5zM280.998 573c-26 0 -47.667 -8.16699 -65 -24.5s-26 -37.166 -26 -62.499s8.66699 -46.5 26 -63.5s39 -25.5 65 -25.5c26.667 0 48.667 8.5 66 25.5s26 38.167 26 63.5
s-8.66699 46.166 -26 62.499s-39.333 24.5 -66 24.5z" />
    <glyph glyph-name="nine" unicode="9" horiz-adv-x="546" 
d="M169 -40l-44.0029 99.001c62.667 28 114.5 59.833 155.5 95.5s70.167 79.5 87.5 131.5c-35.333 -32 -78 -48 -128 -48c-59.333 0 -108.166 20.5 -146.499 61.5s-57.5 91.167 -57.5 150.5c0 64 21 117.833 63 161.5s95.333 65.5 160 65.5
c76.667 0 137.834 -26.333 183.501 -79s68.5 -116.334 68.5 -191.001c0 -102 -32.167 -192 -96.5 -270s-146.166 -137 -245.499 -177zM388.997 409.001c0 47.333 -10 86.501 -30 117.501s-51 46.5 -93 46.5c-32 0 -57.667 -11.333 -77 -34s-29 -50.667 -29 -84
c0 -34.667 10 -62.5 30 -83.5s46 -31.5 78 -31.5c24 0 47 6.16699 69 18.5s39.333 29.166 52 50.499z" />
    <glyph glyph-name="colon" unicode=":" horiz-adv-x="250" 
d="M191 380h-133v135h133v-135zM191 0h-133v136h133v-136z" />
    <glyph glyph-name="semicolon" unicode=";" horiz-adv-x="250" 
d="M192 136l-70 -265h-115l54 265h131zM190 380h-133v135h133v-135z" />
    <glyph glyph-name="less" unicode="&#x3c;" 
d="M17 267v90l515 206v-102l-373 -149l373 -148v-102z" />
    <glyph glyph-name="equal" unicode="=" 
d="M41 454h467v-103h-467v103zM41 271h467v-102h-467v102z" />
    <glyph glyph-name="greater" unicode="&#x3e;" 
d="M533 357v-90l-516 -205v102l373 148l-373 149v102z" />
    <glyph glyph-name="question" unicode="?" horiz-adv-x="544" 
d="M329 227l-125.002 -0.000976562v158c20 6.66699 35.833 12.334 47.5 17.001s25.334 11 41.001 19s27.667 16.333 36 25s15.5 19.5 21.5 32.5s9 27.5 9 43.5c0 24 -7.83301 44.5 -23.5 61.5s-36.5 25.5 -62.5 25.5c-27.333 0 -48.833 -8.66699 -64.5 -26
s-23.5 -41 -23.5 -71v-15h-119v11c0 60 19.833 109 59.5 147s88.834 57 147.501 57c59.333 0 108.333 -19.167 147 -57.5s58 -81.5 58 -129.5c0 -54.667 -12.833 -96.5 -38.5 -125.5s-62.5 -55.167 -110.5 -78.5v-94zM332.998 -0.000976562h-133v136h133v-136z" />
    <glyph glyph-name="at" unicode="@" horiz-adv-x="800" 
d="M552 -96c-50.667 -25.333 -103.001 -38.001 -157.001 -38.001c-95.333 0 -176.5 33.667 -243.5 101s-100.5 148.333 -100.5 243c0 96.667 33.833 178.334 101.5 245.001s149.5 100 245.5 100c102 0 186.167 -30.167 252.5 -90.5s99.5 -138.833 99.5 -235.5
c0 -58.667 -13.833 -108 -41.5 -148s-67.167 -60 -118.5 -60c-50 0 -85 24.333 -105 73c-10 -17.333 -25.167 -30.833 -45.5 -40.5s-41.833 -14.5 -64.5 -14.5c-43.333 0 -78.833 16.167 -106.5 48.5s-41.5 71.5 -41.5 117.5c0 44 13.5 83 40.5 117s62.833 51 107.5 51
c36 0 66.333 -13 91 -39v31h89v-152c0 -38 3 -64.833 9 -80.5s15.667 -23.5 29 -23.5c18.667 0 33 11.5 43 34.5s15 49.5 15 79.5c0 74.667 -22.167 133.5 -66.5 176.5s-106.166 64.5 -185.499 64.5c-70 0 -128.667 -24.167 -176 -72.5s-71 -108.5 -71 -180.5
c0 -71.333 23.5 -131.5 70.5 -180.5s104.833 -73.5 173.5 -73.5c40 0 78.333 9.33301 115 28zM465.999 179.999l0.000976562 72c-22.667 28 -47.334 42 -74.001 42c-25.333 0 -44.333 -8.83301 -57 -26.5s-19 -38.5 -19 -62.5c0 -23.333 6.66699 -43.5 20 -60.5
s31.333 -25.5 54 -25.5c14.667 0 29 5.33301 43 16s25 25.667 33 45z" />
    <glyph glyph-name="A" unicode="A" horiz-adv-x="674" 
d="M14 0l279 700h103l265 -700h-142l-49 138h-270l-50 -138h-136zM336 511l-98 -269h195l-96 269h-1z" />
    <glyph glyph-name="B" unicode="B" horiz-adv-x="616" 
d="M85 0v699.999h177c80 0 142.667 -14.667 188 -44c52.667 -34.667 79 -85 79 -151s-32 -112 -96 -138c39.333 -12.667 70 -33.167 92 -61.5s33 -62.166 33 -101.499c0 -40 -10.833 -75.333 -32.5 -106s-51.167 -54 -88.5 -70c-44.667 -18.667 -106 -28 -184 -28h-168z
M209 306.999v-200.999h42c60.667 0 103.667 6 129 18c31.333 15.333 47 41.666 47 78.999c0 32 -10.667 57.333 -32 76s-52 28 -92 28h-94zM209 594v-185.999h51c96.667 0 145 30.333 145 91c0 33.333 -11.333 57.666 -34 72.999c-22 14.667 -64 22 -126 22h-36z" />
    <glyph glyph-name="C" unicode="C" horiz-adv-x="674" 
d="M185 350c0 -76.667 22.168 -138 66.501 -184s103.166 -69 176.499 -69c54.667 0 105 18 151 54l69 -90c-68.667 -48.667 -143 -73 -223 -73c-106.667 0 -195.167 33.5 -265.5 100.5s-105.5 154.167 -105.5 261.5c0 102.667 36.333 188.667 109 258s161 104 265 104
c69.333 0 137.333 -20.667 204 -62l-59 -96c-46 32.667 -94.333 49 -145 49c-70 0 -128 -24.167 -174 -72.5s-69 -108.5 -69 -180.5z" />
    <glyph glyph-name="D" unicode="D" horiz-adv-x="717" 
d="M85 0l0.00195312 700.001h198c37.333 0 73.5 -3.83301 108.5 -11.5s69.167 -20.334 102.5 -38.001s62.333 -39.5 87 -65.5s44.5 -59 59.5 -99s22.5 -84.333 22.5 -133c0 -62 -11.167 -116.5 -33.5 -163.5s-52.333 -83.833 -90 -110.5s-78.834 -46.5 -123.501 -59.5
s-92.334 -19.5 -143.001 -19.5h-188zM209.002 594.001v-488h23c200 0 300 79.333 300 238c0 80.667 -23.333 142.5 -70 185.5s-112 64.5 -196 64.5h-57z" />
    <glyph glyph-name="E" unicode="E" horiz-adv-x="580" 
d="M522 0h-437v700h437v-106h-313v-181h313v-106h-313v-201h313v-106z" />
    <glyph glyph-name="F" unicode="F" horiz-adv-x="500" 
d="M459 290h-250v-290h-124v700h374v-106h-250v-198h250v-106z" />
    <glyph glyph-name="G" unicode="G" horiz-adv-x="797" 
d="M602 290h-173.001v106h297v-269c-34.667 -45.333 -78 -79.833 -130 -103.5s-108 -35.5 -168 -35.5c-108 0 -197.333 33.667 -268 101s-106 154.333 -106 261c0 102.667 36.333 188.667 109 258s161 104 265 104c113.333 0 208.333 -44 285 -132l-87 -74
c-56.667 64.667 -122.667 97 -198 97c-70 0 -128 -24.167 -174 -72.5s-69 -108.5 -69 -180.5c0 -76 22.333 -137.167 67 -183.5s103.334 -69.5 176.001 -69.5c67.333 0 125.333 22.667 174 68v125z" />
    <glyph glyph-name="H" unicode="H" horiz-adv-x="745" 
d="M660 0h-124v307h-327v-307h-124v700h124v-287h327v287h124v-700z" />
    <glyph glyph-name="I" unicode="I" horiz-adv-x="294" 
d="M209 0h-124v700h124v-700z" />
    <glyph glyph-name="J" unicode="J" horiz-adv-x="343" 
d="M262 700l-0.000976562 -517c0 -65.333 -13 -113.333 -39 -144c-28 -34 -73.667 -51 -137 -51c-41.333 0 -80.666 9.33301 -117.999 28l36 98c22.667 -11.333 45 -17 67 -17c26.667 0 45 7.33301 55 22c8 12.667 12 39 12 79v502h124z" />
    <glyph glyph-name="K" unicode="K" horiz-adv-x="632" 
d="M619 700l-236 -280l244 -420h-143l-185 321l-90 -108v-213h-124v700h124v-316l259 316h151z" />
    <glyph glyph-name="L" unicode="L" horiz-adv-x="507" 
d="M503 0h-418v700h124v-594h294v-106z" />
    <glyph glyph-name="M" unicode="M" horiz-adv-x="943" 
d="M734 544l-221 -544h-88l-216 546v-546h-124v700h187l198 -513l203 513h185v-700h-124v544z" />
    <glyph glyph-name="N" unicode="N" horiz-adv-x="751" 
d="M666 0h-111l-346 473v-473h-124v700h109l348 -474v474h124v-700z" />
    <glyph glyph-name="O" unicode="O" horiz-adv-x="835" 
d="M650 350c0 71.333 -22 131.333 -66 180s-99.667 73 -167 73c-66.667 0 -122 -24.333 -166 -73s-66 -108.667 -66 -180s22 -131.333 66 -180s99.333 -73 166 -73c67.333 0 123 24.333 167 73s66 108.667 66 180zM781 350c0 -100.667 -35 -186.167 -105 -256.5
s-156.333 -105.5 -259 -105.5s-188.834 35.167 -258.501 105.5s-104.5 155.833 -104.5 256.5s34.833 186.167 104.5 256.5s155.834 105.5 258.501 105.5s189 -35.167 259 -105.5s105 -155.833 105 -256.5z" />
    <glyph glyph-name="P" unicode="P" horiz-adv-x="585" 
d="M85 700h216.999c30.667 0 60.5 -4 89.5 -12s56.333 -20 82 -36s46.167 -38.333 61.5 -67s23 -61.667 23 -99c0 -38 -7.66699 -71.333 -23 -100s-35.666 -51 -60.999 -67s-52.5 -28 -81.5 -36s-59.167 -12 -90.5 -12h-93v-271h-124v700zM208.999 594v-217h70
c98.667 0 148 35.333 148 106c0 34 -11.667 61 -35 81s-54.333 30 -93 30h-90z" />
    <glyph glyph-name="Q" unicode="Q" horiz-adv-x="835" 
d="M772 8l-76 -75l-101 100c-54 -30 -113.333 -45 -178 -45c-102.667 0 -188.834 35.167 -258.501 105.5s-104.5 155.833 -104.5 256.5s34.833 186.167 104.5 256.5s155.834 105.5 258.501 105.5s189 -35.167 259 -105.5s105 -155.833 105 -256.5
c0 -98 -33.333 -182 -100 -252zM496 283l99 -99c36.667 46 55 101.333 55 166c0 71.333 -22 131.333 -66 180s-99.667 73 -167 73c-66.667 0 -122 -24.333 -166 -73s-66 -108.667 -66 -180s22 -131.333 66 -180s99.333 -73 166 -73c32.667 0 64 6.66699 94 20l-91 91z" />
    <glyph glyph-name="R" unicode="R" horiz-adv-x="625" 
d="M85 700l216 0.00390625c29.333 0 58 -3.83301 86 -11.5s54.5 -19.334 79.5 -35.001s45.167 -37.334 60.5 -65.001s23 -59.167 23 -94.5c0 -52.667 -15.167 -95.334 -45.5 -128.001s-68.5 -55.334 -114.5 -68.001l217 -298h-154l-200 286h-44v-286h-124v700zM209 392.004
l68.999 0.000976562c42.667 0 76.834 8.16699 102.501 24.5s38.5 41.166 38.5 74.499c0 30.667 -11.167 55.5 -33.5 74.5s-51.5 28.5 -87.5 28.5h-89v-202z" />
    <glyph glyph-name="S" unicode="S" horiz-adv-x="609" 
d="M464 545c-45.333 40 -94.0039 59.998 -146.004 59.998c-30 0 -54.833 -7.33301 -74.5 -22s-29.5 -34.667 -29.5 -60c0 -10.667 2.83301 -20.5 8.5 -29.5s11.834 -16.333 18.501 -22s17 -11.834 31 -18.501s24.5 -11.334 31.5 -14.001s18.833 -6.66699 35.5 -12
c32.667 -11.333 59.167 -21.666 79.5 -30.999s42.666 -22.5 66.999 -39.5s42.5 -38.167 54.5 -63.5s18 -54.666 18 -87.999c0 -48.667 -13.667 -90 -41 -124s-59.666 -58 -96.999 -72s-76.666 -21 -117.999 -21c-99.333 0 -186.666 37.333 -261.999 112l84 81
c32 -30.667 61.167 -52.667 87.5 -66s56.833 -20 91.5 -20s64 8.66699 88 26s36 43 36 77c0 12.667 -3 24.5 -9 35.5s-12.667 20 -20 27s-18.666 14.333 -33.999 22s-27.833 13.5 -37.5 17.5s-24.167 9.33301 -43.5 16c-28 10 -51.667 19.833 -71 29.5
s-39.166 22.167 -59.499 37.5s-35.833 34.333 -46.5 57s-16 48.334 -16 77.001c0 62.667 21.333 110.834 64 144.501s95 50.5 157 50.5c81.333 0 156.666 -26 225.999 -78z" />
    <glyph glyph-name="T" unicode="T" horiz-adv-x="491" 
d="M477 594h-170v-594h-124v594h-170v106h464v-106z" />
    <glyph glyph-name="U" unicode="U" horiz-adv-x="719" 
d="M637 700v-371c0 -112.667 -22.5 -197.667 -67.5 -255s-115.833 -86 -212.5 -86c-183.333 0 -275 113.667 -275 341v371h124v-392c0 -69.333 13.5 -121.833 40.5 -157.5s64.5 -53.5 112.5 -53.5c48.667 0 86.5 17.833 113.5 53.5s40.5 88.167 40.5 157.5v392h124z" />
    <glyph glyph-name="V" unicode="V" horiz-adv-x="657" 
d="M652 700l-279 -700h-103l-265 700h142l182 -511h1l186 511h136z" />
    <glyph glyph-name="W" unicode="W" horiz-adv-x="920" 
d="M519 700l128 -481h2l131 481h135l-200 -700h-123l-132 490h-2l-140 -490h-119l-194 700h137l125 -481h2l134 481h116z" />
    <glyph glyph-name="X" unicode="X" horiz-adv-x="685" 
d="M676 700l-253 -344l259 -356h-160l-183 255l-181 -255h-155l257 354l-250 346h162l174 -246l176 246h154z" />
    <glyph glyph-name="Y" unicode="Y" horiz-adv-x="586" 
d="M351 0h-124v298l-222 402h153l136 -269h2l141 269h144l-230 -407v-293z" />
    <glyph glyph-name="Z" unicode="Z" horiz-adv-x="556" 
d="M514 636l-310 -530h334v-106h-502v66l310 528h-302v106h470v-64z" />
    <glyph glyph-name="bracketleft" unicode="[" horiz-adv-x="322" 
d="M313 -164h-235v912h235v-99h-124v-716h124v-97z" />
    <glyph glyph-name="backslash" unicode="\" horiz-adv-x="388" 
d="M388 -19l-97 -38l-291 785l97 37z" />
    <glyph glyph-name="bracketright" unicode="]" horiz-adv-x="322" 
d="M244 -164h-235v97h125v716h-125v99h235v-912z" />
    <glyph glyph-name="asciicircum" unicode="^" 
d="M480 338h-108l-97 216l-97 -216h-108l150 352h110z" />
    <glyph glyph-name="underscore" unicode="_" 
d="M550 -227h-550v84h550v-84z" />
    <glyph glyph-name="grave" unicode="`" horiz-adv-x="360" 
d="M179 573l-141 167l83 65l129 -178z" />
    <glyph glyph-name="a" unicode="a" horiz-adv-x="563" 
d="M493 0l-107.998 -0.000976562l-6 48c-33.333 -40 -82 -60 -146 -60c-51.333 0 -95 14 -131 42s-54 67.667 -54 119c0 30.667 6.5 57.334 19.5 80.001s30.833 40.167 53.5 52.5s46.667 21.333 72 27s52.666 8.5 81.999 8.5c30 0 62.333 -3.66699 97 -11v12
c0 74.667 -36.667 112 -110 112c-48.667 0 -101.667 -15 -159 -45l-33 91c69.333 34 140.666 51 213.999 51c139.333 0 209 -72 209 -216v-311zM372.002 128.999l-0.000976562 99.001c-29.333 6.66699 -55.666 10 -78.999 10c-34 0 -63.5 -6.5 -88.5 -19.5
s-37.5 -34.833 -37.5 -65.5c0 -24.667 8.33301 -43.334 25 -56.001s37.667 -19 63 -19c38 0 77 17 117 51z" />
    <glyph glyph-name="b" unicode="b" horiz-adv-x="637" 
d="M75 750h121v-294c18 23.333 41.333 41 70 53s57.667 18 87 18c70 0 128.667 -26.167 176 -78.5s71 -116.5 71 -192.5c0 -72.667 -23.5 -135.5 -70.5 -188.5s-106.5 -79.5 -178.5 -79.5c-30 0 -59.667 6 -89 18s-53 30 -71 54l-6 -60h-110v750zM196 341
l-0.000976562 -181.999c34 -43.333 78 -65 132 -65c47.333 0 84 16.667 110 50s39 71.666 39 114.999c0 44 -13.667 82 -41 114s-62.666 48 -105.999 48c-26.667 0 -52.167 -6.66699 -76.5 -20s-43.5 -33.333 -57.5 -60z" />
    <glyph glyph-name="c" unicode="c" horiz-adv-x="496" 
d="M410 132l62.999 -86c-44.667 -38.667 -102.667 -58 -174 -58c-76 0 -138.667 25 -188 75s-74 115 -74 195c0 76 25.333 139.833 76 191.5s114.334 77.5 191.001 77.5c62.667 0 118 -18.333 166 -55l-60 -90c-30 26 -64 39 -102 39c-42 0 -77.167 -15.833 -105.5 -47.5
s-42.5 -70.167 -42.5 -115.5c0 -47.333 14.333 -86.5 43 -117.5s63.334 -46.5 104.001 -46.5c39.333 0 73.666 12.667 102.999 38z" />
    <glyph glyph-name="d" unicode="d" horiz-adv-x="637" 
d="M562 750l-0.000976562 -750h-111l-6 66c-17.333 -26 -40.666 -45.5 -69.999 -58.5s-59.666 -19.5 -90.999 -19.5c-70.667 0 -129.5 26.167 -176.5 78.5s-70.5 116.5 -70.5 192.5c0 72.667 23.5 135.5 70.5 188.5s106.5 79.5 178.5 79.5
c63.333 0 114.666 -21.667 153.999 -65v288h122zM439.999 174v181.999c-34 43.333 -77.667 65 -131 65c-47.333 0 -84 -16.667 -110 -50s-39 -71.666 -39 -114.999c0 -44 13.5 -82 40.5 -114s62.5 -48 106.5 -48c26 0 51.167 6.66699 75.5 20s43.5 33.333 57.5 60z" />
    <glyph glyph-name="e" unicode="e" horiz-adv-x="576" 
d="M534 227h-375c4 -40 18.833 -73.333 44.5 -100s58.834 -40 99.501 -40c63.333 0 110.666 26.667 141.999 80l82 -55c-29.333 -42.667 -62 -74 -98 -94s-80.333 -30 -133 -30c-78 0 -140.667 24.833 -188 74.5s-71 113.5 -71 191.5c0 77.333 24.833 142.166 74.5 194.499
s111.167 78.5 184.5 78.5c70 0 128 -22.667 174 -68s69 -102.333 69 -171c0 -19.333 -1.66699 -39.666 -5 -60.999zM415 314c-1.33301 33.333 -13.001 61 -35.001 83s-49 33 -81 33c-35.333 0 -64.166 -10.5 -86.499 -31.5s-37.833 -49.167 -46.5 -84.5h249z" />
    <glyph glyph-name="f" unicode="f" horiz-adv-x="349" 
d="M386 735l-36 -95c-22.667 10.667 -45.667 16 -69 16c-22.667 0 -39 -5.66699 -49 -17c-12.667 -12.667 -19 -38.667 -19 -78v-46h133v-102h-133v-413h-121v413h-57v102h57v55c0 60 11.667 105.333 35 136c28 37.333 75.333 56 142 56c40.667 0 79.667 -9 117 -27z" />
    <glyph glyph-name="g" unicode="g" horiz-adv-x="631" 
d="M562 515l0.000976562 -488.001c0 -53.333 -10.333 -98.666 -31 -135.999c-42.667 -78 -119.334 -117 -230.001 -117c-88 0 -165.667 23.333 -233 70l45 100c26 -20 56 -35.667 90 -47s65.667 -17 95 -17c42 0 76.167 11.167 102.5 33.5s39.5 55.833 39.5 100.5v58
c-17.333 -24 -40.333 -42 -69 -54s-58 -18 -88 -18c-70 0 -128.5 25.5 -175.5 76.5s-70.5 113.833 -70.5 188.5c0 72 23.5 133.667 70.5 185s106.5 77 178.5 77c29.333 0 58.5 -6 87.5 -18s52.833 -29.667 71.5 -53l6 59h111zM440.001 184.999v171.002
c-34 43.333 -77.667 65 -131 65c-47.333 0 -84 -15.833 -110 -47.5s-39 -68.834 -39 -111.501s13.5 -79.334 40.5 -110.001s62.167 -46 105.5 -46c26.667 0 52.167 6.66699 76.5 20s43.5 33 57.5 59z" />
    <glyph glyph-name="h" unicode="h" horiz-adv-x="613" 
d="M196 750v-305c40 54.667 93 82 159 82c60 0 107.333 -22 142 -66c30.667 -40.667 46 -105 46 -193v-268h-121v259c0 59.333 -6.66699 100.333 -20 123c-14.667 26 -40.667 39 -78 39c-24 0 -47.5 -7.16699 -70.5 -21.5s-42.167 -33.5 -57.5 -57.5v-342h-121v750h121z" />
    <glyph glyph-name="i" unicode="i" horiz-adv-x="271" 
d="M196 0h-121v515h121v-515zM196 599h-121v113h121v-113z" />
    <glyph glyph-name="j" unicode="j" horiz-adv-x="278" 
d="M203 599h-121v113h121v-113zM203 515l-0.000976562 -555c0 -50.667 -8.33301 -89 -25 -115c-26 -46.667 -73.333 -70 -142 -70c-39.333 0 -74.666 7.33301 -105.999 22l33 96c18.667 -8.66699 38.334 -13 59.001 -13c25.333 0 41.666 7.83301 48.999 23.5
s11 39.167 11 70.5v541h121z" />
    <glyph glyph-name="k" unicode="k" horiz-adv-x="538" 
d="M537 0h-148l-130 207l-63 -73v-134h-121v750h121v-463l2 -1l183 229h141l-182 -213z" />
    <glyph glyph-name="l" unicode="l" horiz-adv-x="271" 
d="M196 750v-750h-121v750h121z" />
    <glyph glyph-name="m" unicode="m" horiz-adv-x="925" 
d="M855 0h-122.002v259c0 60.667 -6 101.667 -18 123c-14.667 26 -40.334 39 -77.001 39c-20.667 0 -41.667 -6.33301 -63 -19s-39.666 -29.667 -54.999 -51c3.33301 -20.667 5 -48.334 5 -83.001v-268h-121v259c0 62.667 -6.66699 104.667 -20 126c-14 24 -38 36 -72 36
c-19.333 0 -39.666 -6.66699 -60.999 -20s-39.666 -29.666 -54.999 -48.999v-352h-121v515h111l5 -69c19.333 26 42.833 46 70.5 60s55.5 21 83.5 21c59.333 0 105.666 -23.333 138.999 -70c2.66699 -4 6.33398 -10.667 11.001 -20c42 60 100.333 90 175 90
c58.667 0 104.667 -21.333 138 -64c31.333 -40 47 -105 47 -195v-268z" />
    <glyph glyph-name="n" unicode="n" horiz-adv-x="613" 
d="M75 515h109.999l6 -76c40.667 58.667 95.334 88 164.001 88c60 0 107.333 -22 142 -66c30.667 -40.667 46 -105 46 -193v-268h-121v259c0 59.333 -6.66699 100.333 -20 123c-14.667 26 -40.667 39 -78 39c-24 0 -47.5 -7.16699 -70.5 -21.5s-42.167 -33.5 -57.5 -57.5
v-342h-121v515z" />
    <glyph glyph-name="o" unicode="o" horiz-adv-x="608" 
d="M304 527c76.667 0 140.334 -26 191.001 -78s76 -115.667 76 -191c0 -76 -25.333 -140 -76 -192s-114.334 -78 -191.001 -78s-140.334 26 -191.001 78s-76 116 -76 192c0 75.333 25.333 139 76 191s114.334 78 191.001 78zM448 258c0 45.333 -13.667 83.833 -41 115.5
s-61.666 47.5 -102.999 47.5s-75.666 -15.833 -102.999 -47.5s-41 -70.167 -41 -115.5c0 -46 13.667 -84.833 41 -116.5s61.666 -47.5 102.999 -47.5s75.666 15.833 102.999 47.5s41 70.5 41 116.5z" />
    <glyph glyph-name="p" unicode="p" horiz-adv-x="637" 
d="M75 515h110l7 -66c16.667 26 39.834 45.5 69.501 58.5s60.167 19.5 91.5 19.5c70 0 128.667 -26.167 176 -78.5s71 -116.5 71 -192.5c0 -72.667 -23.5 -135.5 -70.5 -188.5s-106.5 -79.5 -178.5 -79.5c-64.667 0 -116.334 21.333 -155.001 64v-302h-121v765zM196 341
l-0.000976562 -181.999c34 -43.333 78 -65 132 -65c47.333 0 84 16.667 110 50s39 71.666 39 114.999c0 44 -13.667 82 -41 114s-62.666 48 -105.999 48c-26.667 0 -52.167 -6.66699 -76.5 -20s-43.5 -33.333 -57.5 -60z" />
    <glyph glyph-name="q" unicode="q" horiz-adv-x="637" 
d="M562 515v-765h-122v310c-17.333 -24 -40.333 -42 -69 -54s-57.667 -18 -87 -18c-70.667 0 -129.5 26.167 -176.5 78.5s-70.5 116.5 -70.5 192.5c0 72.667 23.5 135.5 70.5 188.5s106.5 79.5 178.5 79.5c29.333 0 58.5 -6 87.5 -18s52.833 -29.667 71.5 -53l6 59h111z
M440 356c-34 43.333 -77.667 64.999 -131 64.999c-47.333 0 -84 -16.667 -110 -50s-39 -71.666 -39 -114.999c0 -44 13.5 -82 40.5 -114s62.5 -48 106.5 -48c26 0 51.167 6.66699 75.5 20s43.5 33.333 57.5 60v182z" />
    <glyph glyph-name="r" unicode="r" horiz-adv-x="367" 
d="M186 515l6 -73c35.333 56.667 77 85 125 85c22 0 42.667 -3 62 -9l-27 -113c-14 7.33301 -30.333 11 -49 11c-44.667 0 -80 -23 -106 -69v-347h-122v515h111z" />
    <glyph glyph-name="s" unicode="s" horiz-adv-x="468" 
d="M412 464l-68 -73.999c-30 26.667 -64 40 -102 40c-18 0 -32.667 -4.5 -44 -13.5s-17 -21.167 -17 -36.5c0 -10.667 4.83301 -20.834 14.5 -30.501s19.5 -17 29.5 -22s25 -11.5 45 -19.5c22 -8.66699 39.5 -16.334 52.5 -23.001s28.167 -16.167 45.5 -28.5
s30.333 -27.166 39 -44.499s13 -37.333 13 -60c0 -54 -18.667 -94.833 -56 -122.5s-83.333 -41.5 -138 -41.5c-78.667 0 -143.667 28.333 -195 85l74 70c38.667 -38.667 78 -58 118 -58c20.667 0 38.667 5 54 15s23 24.667 23 44c0 11.333 -5.5 22 -16.5 32
s-21.667 17.5 -32 22.5s-26.166 11.833 -47.499 20.5c-20 8 -36.167 15.333 -48.5 22s-26.5 16 -42.5 28s-28 26.5 -36 43.5s-12 36.5 -12 58.5c0 50 17.167 88.5 51.5 115.5s76.166 40.5 125.499 40.5c68 0 124.667 -21 170 -63z" />
    <glyph glyph-name="t" unicode="t" horiz-adv-x="362" 
d="M336 413h-136.001v-213c0 -18 0.333008 -32.333 1 -43c4 -42 22.667 -63 56 -63c20.667 0 39.667 4.66699 57 14l36 -92c-32 -18 -69.333 -27 -112 -27c-37.333 0 -68.666 8.66699 -93.999 26s-43 41.333 -53 72c-8.66699 23.333 -13 55 -13 95v231h-64v102h64l13 118
h109v-118h136v-102z" />
    <glyph glyph-name="u" unicode="u" horiz-adv-x="613" 
d="M538 0h-109.999l-6 76c-40.667 -58.667 -95.334 -88 -164.001 -88c-60 0 -107.333 22 -142 66c-30.667 40.667 -46 105 -46 193v268h121v-259c0 -59.333 6.66699 -100.333 20 -123c15.333 -26 41.333 -39 78 -39c24 0 47.5 7.16699 70.5 21.5s42.167 33.5 57.5 57.5v342
h121v-515z" />
    <glyph glyph-name="v" unicode="v" horiz-adv-x="514" 
d="M376 515h132l-207 -515h-101l-195 515h134l117 -352h2z" />
    <glyph glyph-name="w" unicode="w" horiz-adv-x="750" 
d="M434 514l93 -350h2l92 350h124l-149 -514h-127l-93 337h-2l-95 -337h-132l-142 514h130l84 -351h2l99 351h114z" />
    <glyph glyph-name="x" unicode="x" horiz-adv-x="553" 
d="M545 515l-192 -254l191 -261h-155l-115 170l-117 -170h-152l199 260l-184 255h154l110 -163l112 163h149z" />
    <glyph glyph-name="y" unicode="y" horiz-adv-x="509" 
d="M4 515h133l116 -341h2l118 341h132l-290 -749l-108 41l82 217z" />
    <glyph glyph-name="z" unicode="z" horiz-adv-x="471" 
d="M54 55l209 358h-220v102h379v-54l-210 -359h227v-102h-385v55z" />
    <glyph glyph-name="braceleft" unicode="{" horiz-adv-x="330" 
d="M8 254l2 97c50.667 12 76 56 76 132v73c0 60 17.5 109 52.5 147s81.167 57 138.5 57c12 0 26.333 -0.666992 43 -2v-97c-7.33301 0.666992 -18.333 1 -33 1c-60 0 -90 -44 -90 -132v-73c0 -70.667 -21.667 -122 -65 -154c43.333 -34 65 -85.667 65 -155v-94
c0 -88 30.667 -132 92 -132c14 0 24.333 0.333008 31 1v-96c-16.667 -2 -31 -3 -43 -3c-57.333 0 -103.5 19 -138.5 57s-52.5 87 -52.5 147v106c0 31.333 -6.5 57.833 -19.5 79.5s-32.5 35.167 -58.5 40.5z" />
    <glyph glyph-name="bar" unicode="|" horiz-adv-x="321" 
d="M214 -170h-107v1028h107v-1028z" />
    <glyph glyph-name="braceright" unicode="}" horiz-adv-x="330" 
d="M318 351l2 -97c-26 -5.33301 -45.5 -18.833 -58.5 -40.5s-19.5 -48.167 -19.5 -79.5v-106c0 -60 -17.5 -109 -52.5 -147s-81.167 -57 -138.5 -57c-12 0 -26.333 1 -43 3v96c6.66699 -0.666992 17 -1 31 -1c61.333 0 92 44 92 132v94c0 69.333 21.667 121 65 155
c-43.333 32 -65 83.333 -65 154v73c0 88 -30 132 -90 132c-14.667 0 -25.667 -0.333008 -33 -1v97c16.667 1.33301 31 2 43 2c57.333 0 103.5 -19 138.5 -57s52.5 -87 52.5 -147v-73c0 -76 25.333 -120 76 -132z" />
    <glyph glyph-name="asciitilde" unicode="~" 
d="M121 267l-95 -6c-1.33301 9.33301 -2 17.666 -2 24.999c0 42 13.167 75.667 39.5 101s60.833 38 103.5 38c30.667 0 59.5 -7.5 86.5 -22.5s51.333 -29.833 73 -44.5s41.167 -22 58.5 -22c13.333 0 24.5 4.16699 33.5 12.5s13.5 18.833 13.5 31.5
c0 6 -0.666992 10.667 -2 14l95 6c1.33301 -9.33301 2 -17.666 2 -24.999c0 -42 -13.167 -75.667 -39.5 -101s-60.833 -38 -103.5 -38c-24 0 -47.167 4.66699 -69.5 14s-40.666 19.5 -54.999 30.5s-29.833 21.167 -46.5 30.5s-32.334 14 -47.001 14
c-13.333 0 -24.5 -4.16699 -33.5 -12.5s-13.5 -18.833 -13.5 -31.5c0 -6 0.666992 -10.667 2 -14z" />
    <glyph glyph-name="uni00A0" unicode="&#xa0;" horiz-adv-x="250" 
 />
    <glyph glyph-name="exclamdown" unicode="&#xa1;" horiz-adv-x="323" 
d="M93 -185v119l10 354h117l10 -354v-119h-137zM95 515h133v-136h-133v136z" />
    <glyph glyph-name="cent" unicode="&#xa2;" 
d="M437 182l63.001 -84.999c-36.667 -32 -82.334 -51 -137.001 -57v-88h-76v89c-66 8.66699 -119.667 37.167 -161 85.5s-62 108.833 -62 181.5c0 68 20.667 126.667 62 176s95 79.333 161 90v91h76v-90c48 -4.66699 93 -22.334 135 -53.001l-61 -90c-30 26 -64 39 -102 39
c-42 0 -77.167 -15.833 -105.5 -47.5s-42.5 -70.167 -42.5 -115.5c0 -47.333 14.333 -86.5 43 -117.5s63.334 -46.5 104.001 -46.5c39.333 0 73.666 12.667 102.999 38z" />
    <glyph glyph-name="sterling" unicode="&#xa3;" 
d="M499 0h-424.001v106h56v199h-56v106h56v40c0 66 19.667 120.167 59 162.5s90 63.5 152 63.5c58.667 0 112 -14.667 160 -44l-48 -95c-27.333 22.667 -61.333 34 -102 34c-33.333 0 -58.666 -12.333 -75.999 -37s-26 -58.667 -26 -102v-22h130v-106h-130v-199h249v-106z
" />
    <glyph glyph-name="currency" unicode="&#xa4;" 
d="M57 325c0 40.667 11.335 79.333 34.002 116l-55 56l68 68l56 -55c34.667 22 73 33 115 33c41.333 0 79.666 -11 114.999 -33l56 55l68 -68l-55 -56c22.667 -36.667 34 -75.334 34 -116.001c0 -41.333 -11.333 -79.666 -34 -114.999l55 -55l-68 -69l-55 56
c-35.333 -22.667 -74 -34 -116 -34c-42.667 0 -81.334 11 -116.001 33l-55 -55l-68 69l55 55c-22.667 34 -34 72.333 -34 115zM151.002 324.999c0 -34 12.167 -63 36.5 -87s53.5 -36 87.5 -36s63.167 12 87.5 36s36.5 53 36.5 87s-12.167 63.167 -36.5 87.5
s-53.5 36.5 -87.5 36.5s-63.167 -12.167 -87.5 -36.5s-36.5 -53.5 -36.5 -87.5z" />
    <glyph glyph-name="yen" unicode="&#xa5;" 
d="M47 256v86h136l-180 323h138l136 -250h2l131 250h137l-184 -323h135v-86h-165v-58h165v-86h-166v-112h-119v112h-166v86h165v58h-165z" />
    <glyph glyph-name="brokenbar" unicode="&#xa6;" horiz-adv-x="321" 
d="M214 -196h-107v388h107v-388zM214 362h-107v388h107v-388z" />
    <glyph glyph-name="section" unicode="&#xa7;" 
d="M462 649l-69 -76.0059c-36 27.333 -77.333 41 -124 41c-21.333 0 -40.166 -5 -56.499 -15s-24.5 -24.333 -24.5 -43c0 -5.33301 0.833008 -10.5 2.5 -15.5s4.33398 -9.5 8.00098 -13.5s7.33398 -7.83301 11.001 -11.5s9 -7.16699 16 -10.5s13.167 -6.16602 18.5 -8.49902
s12.666 -5.16602 21.999 -8.49902s16.833 -6 22.5 -8s14 -4.66699 25 -8s19.5 -6 25.5 -8c24.667 -8 45.667 -16.167 63 -24.5s35.166 -19 53.499 -32s32.166 -29 41.499 -48s14 -40.833 14 -65.5c0 -56 -30 -102.333 -90 -139c43.333 -29.333 65 -67.666 65 -114.999
c0 -58 -20.833 -102.5 -62.5 -133.5s-93.834 -46.5 -156.501 -46.5c-90.667 0 -167.334 28.667 -230.001 86l71 79c46 -44 98 -66 156 -66c27.333 0 51 6.16699 71 18.5s30 29.833 30 52.5c0 10.667 -3.16699 20.334 -9.5 29.001s-16.666 16.5 -30.999 23.5
s-27.166 12.333 -38.499 16s-27 8.5 -47 14.5c-18.667 5.33301 -31 9 -37 11s-18 6.16699 -36 12.5s-30.833 12 -38.5 17s-18 12 -31 21s-22.333 18.333 -28 28s-11 21.334 -16 35.001s-7.5 28.5 -7.5 44.5c0 66.667 30.333 115.334 91 146.001c-42.667 30 -64 69 -64 117
c0 52 19.5 92.833 58.5 122.5s85.5 44.5 139.5 44.5c74 0 138 -21 192 -63zM323 199.994c19.333 8 35.167 19.5029 47.5 34.5029s18.5 31.167 18.5 48.5c0 7.33301 -1.16699 14 -3.5 20s-6.83301 11.667 -13.5 17s-12.667 9.83301 -18 13.5s-14 8 -26 13
s-21.167 8.66699 -27.5 11s-17.5 6.16602 -33.5 11.499s-27.333 9 -34 11c-21.333 -7.33301 -37.833 -18.5 -49.5 -33.5s-17.5 -31.167 -17.5 -48.5c0 -8 1.16699 -15.167 3.5 -21.5s6.83301 -12.333 13.5 -18s12.667 -10.334 18 -14.001s14 -7.83398 26 -12.501
s21.333 -8.16699 28 -10.5s18 -6 34 -11s27.333 -8.5 34 -10.5z" />
    <glyph glyph-name="dieresis" unicode="&#xa8;" horiz-adv-x="360" 
d="M128 599h-122v113h122v-113zM354 599h-122v113h122v-113z" />
    <glyph glyph-name="copyright" unicode="&#xa9;" horiz-adv-x="805" 
d="M53 333c0 95.333 34.333 176.666 103 243.999s151 101 247 101s178.333 -33.667 247 -101s103 -148.666 103 -243.999s-34.333 -176.666 -103 -243.999s-151 -101 -247 -101s-178.333 33.667 -247 101s-103 148.666 -103 243.999zM149 333
c0 -70.667 24.833 -131.167 74.5 -181.5s109.5 -75.5 179.5 -75.5s129.833 25.167 179.5 75.5s74.5 110.833 74.5 181.5s-24.833 131.167 -74.5 181.5s-109.5 75.5 -179.5 75.5s-129.833 -25.167 -179.5 -75.5s-74.5 -110.833 -74.5 -181.5zM521 481l-44.001 -65
c-22 14.667 -44 22 -66 22c-29.333 0 -53.166 -10 -71.499 -30s-27.5 -45.333 -27.5 -76c0 -33.333 8.83301 -59.5 26.5 -78.5s41.834 -28.5 72.501 -28.5c23.333 0 46.333 8.66699 69 26l46 -62c-34.667 -28 -72.334 -42 -113.001 -42c-55.333 0 -101.333 17 -138 51
s-55 78.667 -55 134c0 52 18.667 95.667 56 131s83 53 137 53c38.667 0 74.667 -11.667 108 -35z" />
    <glyph glyph-name="ordfeminine" unicode="&#xaa;" horiz-adv-x="386" 
d="M336 386l-80.001 0.000976562l-5 30c-22.667 -25.333 -54.334 -38 -95.001 -38c-33.333 0 -62 9.16699 -86 27.5s-36 44.166 -36 77.499c0 39.333 14.667 68 44 86s65 27 107 27c18 0 38.333 -2.33301 61 -7v7c-1.33301 44 -25 66 -71 66
c-34.667 0 -68.667 -10.333 -102 -31l-24 67c46.667 24 94.334 36 143.001 36c46.667 0 82.334 -12.333 107.001 -37s37 -60.667 37 -108v-203zM245.999 535.001c-18.667 3.33301 -33.332 5 -43.999 5c-21.333 0 -39.5 -4.16699 -54.5 -12.5s-22.5 -21.5 -22.5 -39.5
c0 -29.333 18 -44 54 -44c23.333 0 45.666 9 66.999 27v64z" />
    <glyph glyph-name="guillemotleft" unicode="&#xab;" horiz-adv-x="564" 
d="M293 324l154 160l64 -98l-127 -121l127 -121l-64 -98l-154 161v117zM54 324l154 160l64 -98l-127 -121l127 -121l-64 -98l-154 161v117z" />
    <glyph glyph-name="logicalnot" unicode="&#xac;" 
d="M21 429h507v-305h-102v203h-405v102z" />
    <glyph glyph-name="uni00AD" unicode="&#xad;" horiz-adv-x="452" 
d="M363 234h-274v103h274v-103z" />
    <glyph glyph-name="registered" unicode="&#xae;" horiz-adv-x="575" 
d="M48 479c0 65.333 23.5 121.333 70.5 168s103.5 70 169.5 70s122.5 -23.333 169.5 -70s70.5 -102.667 70.5 -168s-23.5 -121.333 -70.5 -168s-103.5 -70 -169.5 -70s-122.5 23.333 -169.5 70s-70.5 102.667 -70.5 168zM120 479c0 -47.333 16.333 -87.666 49 -120.999
s72.334 -50 119.001 -50s86.334 16.667 119.001 50s49 73.666 49 120.999s-16.333 87.666 -49 120.999s-72.334 50 -119.001 50s-86.334 -16.667 -119.001 -50s-49 -73.666 -49 -120.999zM400 362h-75l-55 82h-8v-82h-61v236h68c69.333 0 104 -24.333 104 -73
c0 -32.667 -15 -55 -45 -67zM262 549v-53.001c17.333 0 30 1.83301 38 5.5s12 10.834 12 21.501s-3.5 17.667 -10.5 21s-20.167 5 -39.5 5z" />
    <glyph glyph-name="macron" unicode="&#xaf;" horiz-adv-x="360" 
d="M342 609h-324v86h324v-86z" />
    <glyph glyph-name="degree" unicode="&#xb0;" horiz-adv-x="462" 
d="M157 537c0 -20.667 6.83301 -38.167 20.5 -52.5s30.834 -21.5 51.501 -21.5s38 7.16699 52 21.5s21 31.833 21 52.5s-7 38.167 -21 52.5s-31.333 21.5 -52 21.5s-37.834 -7.16699 -51.501 -21.5s-20.5 -31.833 -20.5 -52.5zM72 537c0 42.667 15.333 79.499 46 110.499
s67.667 46.5 111 46.5c42.667 0 79.667 -15.5 111 -46.5s47 -67.833 47 -110.5c0 -43.333 -15.667 -80.166 -47 -110.499s-68.333 -45.5 -111 -45.5c-44 0 -81.167 15 -111.5 45s-45.5 67 -45.5 111z" />
    <glyph glyph-name="plusminus" unicode="&#xb1;" 
d="M325 662v-202h203v-103h-203v-203h-102v203h-202v103h202v202h102zM21 103h507v-103h-507v103z" />
    <glyph glyph-name="twosuperior" unicode="&#xb2;" horiz-adv-x="326" 
d="M31 434c53.333 50.667 99.333 100.998 138 150.998c21.333 27.333 32 52.333 32 75c0 13.333 -4 23.833 -12 31.5s-18.333 11.5 -31 11.5c-13.333 0 -24 -5.33301 -32 -16s-12 -24 -12 -40l-91 12c2 34.667 15.833 62.667 41.5 84s56.5 32 92.5 32
c36.667 0 68.667 -10.167 96 -30.5s41 -47.166 41 -80.499c0 -37.333 -13.333 -73.666 -40 -108.999c-28.667 -38 -65 -77 -109 -117h163v-71h-277v67z" />
    <glyph glyph-name="threesuperior" unicode="&#xb3;" horiz-adv-x="336" 
d="M107 537v69.001c20 0 36 1.66699 48 5c28.667 6.66699 43 22 43 46c0 13.333 -4.66699 24.333 -14 33s-21.666 13 -36.999 13c-27.333 0 -45.333 -13.333 -54 -40l-71 32c8.66699 25.333 24.5 45 47.5 59s49.167 21 78.5 21c39.333 0 72.666 -9.66699 99.999 -29
s41 -45.333 41 -78c0 -38.667 -18 -67.334 -54 -86.001c24 -7.33301 42.167 -20.333 54.5 -39s18.5 -39 18.5 -61c0 -36.667 -14.333 -66 -43 -88s-64 -33 -106 -33c-32 0 -61.167 7 -87.5 21s-45.166 34.333 -56.499 61l72 34c13.333 -29.333 35.666 -44 66.999 -44
c17.333 0 31.833 4.66699 43.5 14s17.5 22 17.5 38c0 17.333 -7 31 -21 41s-31.333 15 -52 15c-12 0 -23.667 -1.33301 -35 -4z" />
    <glyph glyph-name="acute" unicode="&#xb4;" horiz-adv-x="360" 
d="M322 740l-141 -167l-71 54l129 178z" />
    <glyph glyph-name="mu" unicode="&#xb5;" 
d="M399 0l-7.00098 76c-40 -58.667 -94.333 -88 -163 -88c-24 0 -46.333 4.33301 -67 13v-251h-121v765h121v-261c0 -23.333 0.833008 -42.333 2.5 -57s5.33398 -31 11.001 -49s15.5 -31.5 29.5 -40.5s32.333 -13.5 55 -13.5c24 0 47.5 7.16699 70.5 21.5
s42.167 33.5 57.5 57.5v342h121v-515h-110z" />
    <glyph glyph-name="paragraph" unicode="&#xb6;" 
d="M506 -175h-110v875h110v-875zM345 -175h-110.999v450c-57.333 8.66699 -105 30.5 -143 65.5s-57 83.5 -57 145.5c0 37.333 7.66699 70.333 23 99s35.666 51 60.999 67s52.5 28 81.5 36s58.833 12 89.5 12h56v-875zM144.001 486c0 -30.667 8.66699 -55.333 26 -74
s38.666 -29 63.999 -31v211c-25.333 -2 -46.666 -12.333 -63.999 -31s-26 -43.667 -26 -75z" />
    <glyph glyph-name="periodcentered" unicode="&#xb7;" horiz-adv-x="250" 
d="M191 251h-133v135h133v-135z" />
    <glyph glyph-name="cedilla" unicode="&#xb8;" horiz-adv-x="400" 
d="M188 5l-25.999 -67l1 -1c14.667 10.667 30.334 16 47.001 16c24 0 45.167 -9.33301 63.5 -28s27.5 -42 27.5 -70s-10.833 -52.833 -32.5 -74.5s-48.167 -32.5 -79.5 -32.5c-48.667 0 -85.667 22 -111 66l64 30c8 -21.333 22.333 -32 43 -32c11.333 0 20.666 4 27.999 12
s11 17.333 11 28c0 12 -3.66699 22.167 -11 30.5s-17 12.5 -29 12.5c-16.667 0 -29.334 -7 -38.001 -21l-68 35l46 107z" />
    <glyph glyph-name="onesuperior" unicode="&#xb9;" horiz-adv-x="224" 
d="M175 367l-91 0.000976562v302l-56 -24v78c48 25.333 77 40.666 87 45.999h60v-402z" />
    <glyph glyph-name="ordmasculine" unicode="&#xba;" horiz-adv-x="412" 
d="M206 734c52 0 95 -17 129 -51s51 -76.333 51 -127s-17 -93 -51 -127s-77 -51 -129 -51s-95 17 -129 51s-51 76.333 -51 127s17 93 51 127s77 51 129 51zM293 556c0 30 -8 54.833 -24 74.5s-37 29.5 -63 29.5s-47 -9.83301 -63 -29.5s-24 -44.5 -24 -74.5
s8 -54.833 24 -74.5s37 -29.5 63 -29.5s47 9.83301 63 29.5s24 44.5 24 74.5z" />
    <glyph glyph-name="guillemotright" unicode="&#xbb;" horiz-adv-x="564" 
d="M117 478l155 -155v-117l-155 -155l-63 93l126 120l-126 122zM356 478l155 -155v-117l-155 -155l-63 93l126 120l-126 122z" />
    <glyph glyph-name="onequarter" unicode="&#xbc;" horiz-adv-x="778" 
d="M586 715l64 -47l-498 -683l-64 47zM234 338h-86.001v268c-23.333 -12 -41.666 -20.333 -54.999 -25v79c30 14.667 56 28 78 40h63v-362zM408.999 156l153 204h88v-208h48v-69h-48v-83h-85v83h-156v73zM564.999 152v105c-26 -40.667 -49.667 -75.667 -71 -105h71z" />
    <glyph glyph-name="onehalf" unicode="&#xbd;" horiz-adv-x="804" 
d="M586 715l64 -47l-498 -683l-64 47zM234 338h-86.001v268c-23.333 -12 -41.666 -20.333 -54.999 -25v79c30 14.667 56 28 78 40h63v-362zM469.999 62c50.667 46 92.667 91.001 126 135.001c19.333 24.667 29 46.667 29 66c0 10.667 -3.5 19.167 -10.5 25.5
s-16.5 9.5 -28.5 9.5s-21.667 -4.16699 -29 -12.5s-11 -19.833 -11 -34.5l-83 14c2 31.333 14.833 56.333 38.5 75s52.5 28 86.5 28c33.333 0 62.333 -9.5 87 -28.5s37 -43.5 37 -73.5c0 -32.667 -13 -65.334 -39 -98.001c-22 -30 -51.667 -62.333 -89 -97h140v-71h-254v62z
" />
    <glyph glyph-name="threequarters" unicode="&#xbe;" horiz-adv-x="852" 
d="M660 715l64 -47l-498 -683l-64 47zM483 156l153 204h87v-208h49v-69h-49v-83h-84v83h-156v73zM639 152v105c-26 -40.667 -49.667 -75.667 -71 -105h71zM166 490l-1.00391 66.001c19.333 0 33 1.33301 41 4c24 5.33301 36 18.666 36 39.999c0 10.667 -4 19.667 -12 27
s-18.667 11 -32 11c-23.333 0 -37.666 -11.667 -42.999 -35l-69 32c8 22.667 22.333 40.334 43 53.001s44.334 19 71.001 19c34.667 0 64.5 -8.83301 89.5 -26.5s37.5 -40.834 37.5 -69.501c0 -34 -15.667 -60 -47 -78c19.333 -6.66699 34.833 -18.167 46.5 -34.5
s17.5 -34.833 17.5 -55.5c0 -34 -13.167 -60.833 -39.5 -80.5s-57.833 -29.5 -94.5 -29.5c-63.333 0 -106.666 25.333 -129.999 76l69 31c10.667 -25.333 30.334 -38 59.001 -38c13.333 0 24.833 3.83301 34.5 11.5s14.5 18.5 14.5 32.5c0 15.333 -5.83301 27 -17.5 35
s-27.167 12 -46.5 12c-8.66699 0 -17.667 -1 -27 -3z" />
    <glyph glyph-name="questiondown" unicode="&#xbf;" horiz-adv-x="544" 
d="M215 289l125.002 0.000976562v-158c-20 -6.66699 -35.833 -12.334 -47.5 -17.001s-25.334 -11 -41.001 -19s-27.667 -16.333 -36 -25s-15.5 -19.5 -21.5 -32.5s-9 -27.5 -9 -43.5c0 -24 7.83301 -44.5 23.5 -61.5s36.5 -25.5 62.5 -25.5c27.333 0 48.833 8.66699 64.5 26
s23.5 41 23.5 71v15h119v-11c0 -60 -19.833 -109 -59.5 -147s-88.834 -57 -147.501 -57c-59.333 0 -108.333 19.167 -147 57.5s-58 81.5 -58 129.5c0 54.667 12.833 96.5 38.5 125.5s62.5 55.167 110.5 78.5v94zM211.002 516.001h133v-136h-133v136z" />
    <glyph glyph-name="Agrave" unicode="&#xc0;" horiz-adv-x="674" 
d="M14 0l279 700h103l265 -700h-142l-49 138h-270l-50 -138h-136zM336 511l-98 -269h195l-96 269h-1zM354 736l-179 127l64 84l170 -142z" />
    <glyph glyph-name="Aacute" unicode="&#xc1;" horiz-adv-x="674" 
d="M14 0l279 700h103l265 -700h-142l-49 138h-270l-50 -138h-136zM336 511l-98 -269h195l-96 269h-1zM492 863l-179 -127l-55 69l170 142z" />
    <glyph glyph-name="Acircumflex" unicode="&#xc2;" horiz-adv-x="674" 
d="M14 0l279 700h103l265 -700h-142l-49 138h-270l-50 -138h-136zM336 511l-98 -269h195l-96 269h-1zM278 928h132l110 -138l-70 -53l-108 115l-107 -115l-71 53z" />
    <glyph glyph-name="Atilde" unicode="&#xc3;" horiz-adv-x="674" 
d="M14 0l279 700h103l265 -700h-142l-49 138h-270l-50 -138h-136zM336 511l-98 -269h195l-96 269h-1zM459 877l74.999 9.00098c3.33301 -11.333 5 -22.333 5 -33c0 -30.667 -10 -55.167 -30 -73.5s-46.333 -27.5 -79 -27.5c-24.667 0 -52.834 9.33301 -84.501 28
s-52.167 28 -61.5 28c-8 0 -14.833 -2.33301 -20.5 -7s-8.5 -11 -8.5 -19c0 -4 0.333008 -6.66699 1 -8l-74 -8c-3.33301 11.333 -5 22.666 -5 33.999c0 29.333 9.83301 53.333 29.5 72s45.834 28 78.501 28c24.667 0 52.834 -9.5 84.501 -28.5s52.167 -28.5 61.5 -28.5
c18 0 27.667 8.66699 29 26c0 4 -0.333008 6.66699 -1 8z" />
    <glyph glyph-name="Adieresis" unicode="&#xc4;" horiz-adv-x="674" 
d="M14 0l279 700h103l265 -700h-142l-49 138h-270l-50 -138h-136zM336 511l-98 -269h195l-96 269h-1zM272 763h-130v116h130v-116zM546 763h-130v116h130v-116z" />
    <glyph glyph-name="Aring" unicode="&#xc5;" horiz-adv-x="674" 
d="M14 0l279 700h103l265 -700h-142l-49 138h-270l-50 -138h-136zM336 511l-98 -269h195l-96 269h-1zM240 825c0 28.667 10.333 53.334 31 74.001s45.334 31 74.001 31s53.334 -10.333 74.001 -31s31 -45.334 31 -74.001s-10.333 -53.334 -31 -74.001
s-45.334 -31 -74.001 -31s-53.334 10.333 -74.001 31s-31 45.334 -31 74.001zM299 825c0 -12.667 4.5 -23.5 13.5 -32.5s19.833 -13.5 32.5 -13.5s23.5 4.5 32.5 13.5s13.5 19.833 13.5 32.5s-4.5 23.5 -13.5 32.5s-19.833 13.5 -32.5 13.5s-23.5 -4.5 -32.5 -13.5
s-13.5 -19.833 -13.5 -32.5z" />
    <glyph glyph-name="AE" unicode="&#xc6;" horiz-adv-x="1000" 
d="M941 0h-437v138h-263l-95 -138h-155l514 700h436v-106h-313v-180h313v-107h-313v-201h313v-106zM312 243h192v278z" />
    <glyph glyph-name="Ccedilla" unicode="&#xc7;" horiz-adv-x="674" 
d="M632 650l-58.998 -96c-46 32.667 -94.333 49 -145 49c-70 0 -128 -24.167 -174 -72.5s-69 -108.5 -69 -180.5c0 -76.667 22.167 -138 66.5 -184s103.166 -69 176.499 -69c54.667 0 105 18 151 54l69 -90c-68.667 -48.667 -143 -73 -223 -73c-20 0 -37.667 1.33301 -53 4
l-22 -54l1 -1c14 10.667 29.667 16 47 16c26 0 47.667 -9.5 65 -28.5s26 -42.167 26 -69.5c0 -28 -10.833 -52.833 -32.5 -74.5s-48.167 -32.5 -79.5 -32.5c-49.333 0 -86 22 -110 66l63 30c9.33301 -21.333 23.666 -32 42.999 -32c11.333 0 20.833 4 28.5 12
s11.5 17.333 11.5 28c0 11.333 -3.66699 21.333 -11 30s-16.666 13 -27.999 13c-17.333 0 -30.333 -7 -39 -21l-69 35l43 95c-76.667 22 -138.334 63.667 -185.001 125s-70 135 -70 221c0 102.667 36.333 188.667 109 258s161 104 265 104c69.333 0 137.333 -20.667 204 -62
z" />
    <glyph glyph-name="Egrave" unicode="&#xc8;" horiz-adv-x="580" 
d="M522 0h-437v700h437v-106h-313v-181h313v-106h-313v-201h313v-106zM346 736l-179 127l64 84l170 -142z" />
    <glyph glyph-name="Eacute" unicode="&#xc9;" horiz-adv-x="580" 
d="M522 0h-437v700h437v-106h-313v-181h313v-106h-313v-201h313v-106zM459 863l-179 -127l-55 69l170 142z" />
    <glyph glyph-name="Ecircumflex" unicode="&#xca;" horiz-adv-x="580" 
d="M522 0h-437v700h437v-106h-313v-181h313v-106h-313v-201h313v-106zM244 928h132l110 -138l-70 -53l-108 115l-107 -115l-71 53z" />
    <glyph glyph-name="Edieresis" unicode="&#xcb;" horiz-adv-x="580" 
d="M258 763h-128v116h128v-116zM492 763h-128v116h128v-116zM522 0h-437v700h437v-106h-313v-180h313v-107h-313v-201h313v-106z" />
    <glyph glyph-name="Igrave" unicode="&#xcc;" horiz-adv-x="294" 
d="M209 0h-124v700h124v-700zM157 736l-179 127l64 84l170 -142z" />
    <glyph glyph-name="Iacute" unicode="&#xcd;" horiz-adv-x="294" 
d="M209 0h-124v700h124v-700zM316 863l-179 -127l-55 69l170 142z" />
    <glyph glyph-name="Icircumflex" unicode="&#xce;" horiz-adv-x="294" 
d="M209 0h-124v700h124v-700zM83 928h132l110 -138l-70 -53l-108 115l-107 -115l-71 53z" />
    <glyph glyph-name="Idieresis" unicode="&#xcf;" horiz-adv-x="294" 
d="M97 763h-130v116h130v-116zM327 763h-130v116h130v-116zM209 0h-124v700h124v-700z" />
    <glyph glyph-name="Eth" unicode="&#xd0;" horiz-adv-x="717" 
d="M663 353c0 -62 -11.165 -116.499 -33.498 -163.499s-52.333 -83.833 -90 -110.5s-78.834 -46.5 -123.501 -59.5s-92.334 -19.5 -143.001 -19.5h-188v316h-68v90h68v294h198c37.333 0 73.5 -3.83301 108.5 -11.5s69.167 -20.334 102.5 -38.001s62.333 -39.5 87 -65.5
s44.5 -59 59.5 -99s22.5 -84.333 22.5 -133zM532.002 344.001c0 80.667 -23.333 142.5 -70 185.5s-112 64.5 -196 64.5h-57v-188h116v-90h-116v-210h23c200 0 300 79.333 300 238z" />
    <glyph glyph-name="Ntilde" unicode="&#xd1;" horiz-adv-x="751" 
d="M666 0h-111l-346 473v-473h-124v700h109l348 -474v474h124v-700zM488 877l74.999 9.00098c3.33301 -11.333 5 -22.333 5 -33c0 -30.667 -10 -55.167 -30 -73.5s-46.333 -27.5 -79 -27.5c-24.667 0 -52.834 9.33301 -84.501 28s-52.167 28 -61.5 28
c-8 0 -14.833 -2.33301 -20.5 -7s-8.5 -11 -8.5 -19c0 -4 0.333008 -6.66699 1 -8l-74 -8c-3.33301 11.333 -5 22.666 -5 33.999c0 29.333 9.83301 53.333 29.5 72s45.834 28 78.501 28c24.667 0 52.834 -9.5 84.501 -28.5s52.167 -28.5 61.5 -28.5
c18 0 27.667 8.66699 29 26c0 4 -0.333008 6.66699 -1 8z" />
    <glyph glyph-name="Ograve" unicode="&#xd2;" horiz-adv-x="835" 
d="M650 350c0 71.333 -22 131.333 -66 180s-99.667 73 -167 73c-66.667 0 -122 -24.333 -166 -73s-66 -108.667 -66 -180s22 -131.333 66 -180s99.333 -73 166 -73c67.333 0 123 24.333 167 73s66 108.667 66 180zM781 350c0 -100.667 -35 -186.167 -105 -256.5
s-156.333 -105.5 -259 -105.5s-188.834 35.167 -258.501 105.5s-104.5 155.833 -104.5 256.5s34.833 186.167 104.5 256.5s155.834 105.5 258.501 105.5s189 -35.167 259 -105.5s105 -155.833 105 -256.5zM430 736l-179 127l64 84l170 -142z" />
    <glyph glyph-name="Oacute" unicode="&#xd3;" horiz-adv-x="835" 
d="M650 350c0 71.333 -22 131.333 -66 180s-99.667 73 -167 73c-66.667 0 -122 -24.333 -166 -73s-66 -108.667 -66 -180s22 -131.333 66 -180s99.333 -73 166 -73c67.333 0 123 24.333 167 73s66 108.667 66 180zM781 350c0 -100.667 -35 -186.167 -105 -256.5
s-156.333 -105.5 -259 -105.5s-188.834 35.167 -258.501 105.5s-104.5 155.833 -104.5 256.5s34.833 186.167 104.5 256.5s155.834 105.5 258.501 105.5s189 -35.167 259 -105.5s105 -155.833 105 -256.5zM587 863l-179 -127l-55 69l170 142z" />
    <glyph glyph-name="Ocircumflex" unicode="&#xd4;" horiz-adv-x="835" 
d="M650 350c0 71.333 -22 131.333 -66 180s-99.667 73 -167 73c-66.667 0 -122 -24.333 -166 -73s-66 -108.667 -66 -180s22 -131.333 66 -180s99.333 -73 166 -73c67.333 0 123 24.333 167 73s66 108.667 66 180zM781 350c0 -100.667 -35 -186.167 -105 -256.5
s-156.333 -105.5 -259 -105.5s-188.834 35.167 -258.501 105.5s-104.5 155.833 -104.5 256.5s34.833 186.167 104.5 256.5s155.834 105.5 258.501 105.5s189 -35.167 259 -105.5s105 -155.833 105 -256.5zM353 928h132l110 -138l-70 -53l-108 115l-107 -115l-71 53z" />
    <glyph glyph-name="Otilde" unicode="&#xd5;" horiz-adv-x="835" 
d="M650 350c0 71.333 -22 131.333 -66 180s-99.667 73 -167 73c-66.667 0 -122 -24.333 -166 -73s-66 -108.667 -66 -180s22 -131.333 66 -180s99.333 -73 166 -73c67.333 0 123 24.333 167 73s66 108.667 66 180zM781 350c0 -100.667 -35 -186.167 -105 -256.5
s-156.333 -105.5 -259 -105.5s-188.834 35.167 -258.501 105.5s-104.5 155.833 -104.5 256.5s34.833 186.167 104.5 256.5s155.834 105.5 258.501 105.5s189 -35.167 259 -105.5s105 -155.833 105 -256.5zM539 877l74.999 9.00098c3.33301 -11.333 5 -22.333 5 -33
c0 -30.667 -10 -55.167 -30 -73.5s-46.333 -27.5 -79 -27.5c-24.667 0 -52.834 9.33301 -84.501 28s-52.167 28 -61.5 28c-8 0 -14.833 -2.33301 -20.5 -7s-8.5 -11 -8.5 -19c0 -4 0.333008 -6.66699 1 -8l-74 -8c-3.33301 11.333 -5 22.666 -5 33.999
c0 29.333 9.83301 53.333 29.5 72s45.834 28 78.501 28c24.667 0 52.834 -9.5 84.501 -28.5s52.167 -28.5 61.5 -28.5c18 0 27.667 8.66699 29 26c0 4 -0.333008 6.66699 -1 8z" />
    <glyph glyph-name="Odieresis" unicode="&#xd6;" horiz-adv-x="835" 
d="M650 350c0 71.333 -22 131.333 -66 180s-99.667 73 -167 73c-66.667 0 -122 -24.333 -166 -73s-66 -108.667 -66 -180s22 -131.333 66 -180s99.333 -73 166 -73c67.333 0 123 24.333 167 73s66 108.667 66 180zM781 350c0 -100.667 -35 -186.167 -105 -256.5
s-156.333 -105.5 -259 -105.5s-188.834 35.167 -258.501 105.5s-104.5 155.833 -104.5 256.5s34.833 186.167 104.5 256.5s155.834 105.5 258.501 105.5s189 -35.167 259 -105.5s105 -155.833 105 -256.5zM345 763h-130v116h130v-116zM619 763h-130v116h130v-116z" />
    <glyph glyph-name="multiply" unicode="&#xd7;" 
d="M489 171l-73 -73l-141 141l-141 -141l-73 73l141 141l-140 140l73 73l140 -141l140 141l73 -73l-141 -141z" />
    <glyph glyph-name="Oslash" unicode="&#xd8;" horiz-adv-x="835" 
d="M687 668l-30.002 -45c38.667 -33.333 69 -73.833 91 -121.5s33 -98.167 33 -151.5c0 -100.667 -35 -186.167 -105 -256.5s-156.333 -105.5 -259 -105.5c-59.333 0 -113.666 12.333 -162.999 37l-34 -49l-82 53l34 51c-37.333 33.333 -66.333 73.333 -87 120
s-31 96.667 -31 150c0 100.667 34.833 186.167 104.5 256.5s155.834 105.5 258.501 105.5c56 0 108.667 -12 158 -36l30 45zM649.998 350c0 66.667 -20.333 124 -61 172l-272 -402c30.667 -15.333 64 -23 100 -23c67.333 0 123 24.333 167 73s66 108.667 66 180z
M184.998 350c0 -66 19 -121.667 57 -167l269 399c-28 14 -59.333 21 -94 21c-66.667 0 -122 -24.333 -166 -73s-66 -108.667 -66 -180z" />
    <glyph glyph-name="Ugrave" unicode="&#xd9;" horiz-adv-x="719" 
d="M637 700v-371c0 -112.667 -22.5 -197.667 -67.5 -255s-115.833 -86 -212.5 -86c-183.333 0 -275 113.667 -275 341v371h124v-392c0 -69.333 13.5 -121.833 40.5 -157.5s64.5 -53.5 112.5 -53.5c48.667 0 86.5 17.833 113.5 53.5s40.5 88.167 40.5 157.5v392h124zM370 736
l-179 127l64 84l170 -142z" />
    <glyph glyph-name="Uacute" unicode="&#xda;" horiz-adv-x="719" 
d="M637 700v-371c0 -112.667 -22.5 -197.667 -67.5 -255s-115.833 -86 -212.5 -86c-183.333 0 -275 113.667 -275 341v371h124v-392c0 -69.333 13.5 -121.833 40.5 -157.5s64.5 -53.5 112.5 -53.5c48.667 0 86.5 17.833 113.5 53.5s40.5 88.167 40.5 157.5v392h124zM519 863
l-179 -127l-55 69l170 142z" />
    <glyph glyph-name="Ucircumflex" unicode="&#xdb;" horiz-adv-x="719" 
d="M637 700v-371c0 -112.667 -22.5 -197.667 -67.5 -255s-115.833 -86 -212.5 -86c-183.333 0 -275 113.667 -275 341v371h124v-392c0 -69.333 13.5 -121.833 40.5 -157.5s64.5 -53.5 112.5 -53.5c48.667 0 86.5 17.833 113.5 53.5s40.5 88.167 40.5 157.5v392h124zM299 928
h132l110 -138l-70 -53l-108 115l-107 -115l-71 53z" />
    <glyph glyph-name="Udieresis" unicode="&#xdc;" horiz-adv-x="719" 
d="M637 700v-371c0 -112.667 -22.5 -197.667 -67.5 -255s-115.833 -86 -212.5 -86c-183.333 0 -275 113.667 -275 341v371h124v-392c0 -69.333 13.5 -121.833 40.5 -157.5s64.5 -53.5 112.5 -53.5c48.667 0 86.5 17.833 113.5 53.5s40.5 88.167 40.5 157.5v392h124zM288 763
h-130v116h130v-116zM562 763h-130v116h130v-116z" />
    <glyph glyph-name="Yacute" unicode="&#xdd;" horiz-adv-x="586" 
d="M351 0h-124v298l-222 402h153l136 -269h2l141 269h144l-230 -407v-293zM452 863l-179 -127l-55 69l170 142z" />
    <glyph glyph-name="Thorn" unicode="&#xde;" horiz-adv-x="597" 
d="M85 701h123.999v-132h93c30.667 0 60.5 -4 89.5 -12s56.333 -20 82 -36s46.167 -38.333 61.5 -67s23 -61.667 23 -99c0 -38 -7.66699 -71.333 -23 -100s-35.666 -51.167 -60.999 -67.5s-52.5 -28.5 -81.5 -36.5s-59.167 -12 -90.5 -12h-93v-143h-124v705zM425.999 352
c0 34 -11.667 60.833 -35 80.5s-54.333 29.5 -93 29.5h-89v-216h69c98.667 0 148 35.333 148 106z" />
    <glyph glyph-name="germandbls" unicode="&#xdf;" horiz-adv-x="634" 
d="M191 0l-119 -0.00292969v537c0 68.667 22.5 123.334 67.5 164.001s100.5 61 166.5 61c64 0 117.833 -18.333 161.5 -55s65.5 -86 65.5 -148c0 -28 -6.5 -54.167 -19.5 -78.5s-30.167 -44.5 -51.5 -60.5c41.333 -14 73.833 -38.5 97.5 -73.5s35.5 -76.833 35.5 -125.5
c0 -68.667 -23.5 -124.667 -70.5 -168s-104.5 -65 -172.5 -65c-36.667 0 -70.334 7.66699 -101.001 23l35 97c22.667 -10.667 44.334 -16 65.001 -16c40 0 70.5 11.833 91.5 35.5s31.5 54.834 31.5 93.501c0 44.667 -13.833 78.834 -41.5 102.501s-63.5 35.5 -107.5 35.5
c-21.333 0 -37.333 -0.666992 -48 -2v94h25c29.333 0 55.5 9.5 78.5 28.5s34.5 43.833 34.5 74.5s-9.83301 55.667 -29.5 75s-45.167 29 -76.5 29c-39.333 0 -68.833 -12.333 -88.5 -37s-29.5 -59 -29.5 -103v-518z" />
    <glyph glyph-name="agrave" unicode="&#xe0;" horiz-adv-x="563" 
d="M493 0l-107.998 -0.000976562l-6 48c-33.333 -40 -82 -60 -146 -60c-51.333 0 -95 14 -131 42s-54 67.667 -54 119c0 30.667 6.5 57.334 19.5 80.001s30.833 40.167 53.5 52.5s46.667 21.333 72 27s52.666 8.5 81.999 8.5c30 0 62.333 -3.66699 97 -11v12
c0 74.667 -36.667 112 -110 112c-48.667 0 -101.667 -15 -159 -45l-33 91c69.333 34 140.666 51 213.999 51c139.333 0 209 -72 209 -216v-311zM372.002 128.999l-0.000976562 99.001c-29.333 6.66699 -55.666 10 -78.999 10c-34 0 -63.5 -6.5 -88.5 -19.5
s-37.5 -34.833 -37.5 -65.5c0 -24.667 8.33301 -43.334 25 -56.001s37.667 -19 63 -19c38 0 77 17 117 51zM271.001 573l-141 167l83 65l129 -178z" />
    <glyph glyph-name="aacute" unicode="&#xe1;" horiz-adv-x="563" 
d="M493 0l-107.998 -0.000976562l-6 48c-33.333 -40 -82 -60 -146 -60c-51.333 0 -95 14 -131 42s-54 67.667 -54 119c0 30.667 6.5 57.334 19.5 80.001s30.833 40.167 53.5 52.5s46.667 21.333 72 27s52.666 8.5 81.999 8.5c30 0 62.333 -3.66699 97 -11v12
c0 74.667 -36.667 112 -110 112c-48.667 0 -101.667 -15 -159 -45l-33 91c69.333 34 140.666 51 213.999 51c139.333 0 209 -72 209 -216v-311zM372.002 128.999l-0.000976562 99.001c-29.333 6.66699 -55.666 10 -78.999 10c-34 0 -63.5 -6.5 -88.5 -19.5
s-37.5 -34.833 -37.5 -65.5c0 -24.667 8.33301 -43.334 25 -56.001s37.667 -19 63 -19c38 0 77 17 117 51zM434.001 740l-141 -167l-71 54l129 178z" />
    <glyph glyph-name="acircumflex" unicode="&#xe2;" horiz-adv-x="563" 
d="M493 0l-107.998 -0.000976562l-6 48c-33.333 -40 -82 -60 -146 -60c-51.333 0 -95 14 -131 42s-54 67.667 -54 119c0 30.667 6.5 57.334 19.5 80.001s30.833 40.167 53.5 52.5s46.667 21.333 72 27s52.666 8.5 81.999 8.5c30 0 62.333 -3.66699 97 -11v12
c0 74.667 -36.667 112 -110 112c-48.667 0 -101.667 -15 -159 -45l-33 91c69.333 34 140.666 51 213.999 51c139.333 0 209 -72 209 -216v-311zM372.002 128.999l-0.000976562 99.001c-29.333 6.66699 -55.666 10 -78.999 10c-34 0 -63.5 -6.5 -88.5 -19.5
s-37.5 -34.833 -37.5 -65.5c0 -24.667 8.33301 -43.334 25 -56.001s37.667 -19 63 -19c38 0 77 17 117 51zM211.001 786h121l106 -163l-67 -43l-101 131l-99 -131l-69 43z" />
    <glyph glyph-name="atilde" unicode="&#xe3;" horiz-adv-x="563" 
d="M493 0l-107.998 -0.000976562l-6 48c-33.333 -40 -82 -60 -146 -60c-51.333 0 -95 14 -131 42s-54 67.667 -54 119c0 30.667 6.5 57.334 19.5 80.001s30.833 40.167 53.5 52.5s46.667 21.333 72 27s52.666 8.5 81.999 8.5c30 0 62.333 -3.66699 97 -11v12
c0 74.667 -36.667 112 -110 112c-48.667 0 -101.667 -15 -159 -45l-33 91c69.333 34 140.666 51 213.999 51c139.333 0 209 -72 209 -216v-311zM372.002 128.999l-0.000976562 99.001c-29.333 6.66699 -55.666 10 -78.999 10c-34 0 -63.5 -6.5 -88.5 -19.5
s-37.5 -34.833 -37.5 -65.5c0 -24.667 8.33301 -43.334 25 -56.001s37.667 -19 63 -19c38 0 77 17 117 51zM174.001 604l-74 -8c-3.33301 11.333 -5 22 -5 32c0 29.333 10 53.166 30 71.499s46.333 27.5 79 27.5c24.667 0 52.834 -9.33301 84.501 -28s52.167 -28 61.5 -28
c18 0 27.667 8.66699 29 26c0 4 -0.333008 6.66699 -1 8l74 8c3.33301 -11.333 5 -22 5 -32c0 -29.333 -10 -53.166 -30 -71.499s-46.333 -27.5 -79 -27.5c-24.667 0 -52.834 9.33301 -84.501 28s-52.167 28 -61.5 28c-18 0 -27.667 -8.66699 -29 -26
c0 -4 0.333008 -6.66699 1 -8z" />
    <glyph glyph-name="adieresis" unicode="&#xe4;" horiz-adv-x="563" 
d="M493 0l-107.998 -0.000976562l-6 48c-33.333 -40 -82 -60 -146 -60c-51.333 0 -95 14 -131 42s-54 67.667 -54 119c0 30.667 6.5 57.334 19.5 80.001s30.833 40.167 53.5 52.5s46.667 21.333 72 27s52.666 8.5 81.999 8.5c30 0 62.333 -3.66699 97 -11v12
c0 74.667 -36.667 112 -110 112c-48.667 0 -101.667 -15 -159 -45l-33 91c69.333 34 140.666 51 213.999 51c139.333 0 209 -72 209 -216v-311zM372.002 128.999l-0.000976562 99.001c-29.333 6.66699 -55.666 10 -78.999 10c-34 0 -63.5 -6.5 -88.5 -19.5
s-37.5 -34.833 -37.5 -65.5c0 -24.667 8.33301 -43.334 25 -56.001s37.667 -19 63 -19c38 0 77 17 117 51zM222.001 599h-122v113h122v-113zM448.001 599h-122v113h122v-113z" />
    <glyph glyph-name="aring" unicode="&#xe5;" horiz-adv-x="563" 
d="M493 0l-107.998 -0.000976562l-6 48c-33.333 -40 -82 -60 -146 -60c-51.333 0 -95 14 -131 42s-54 67.667 -54 119c0 30.667 6.5 57.334 19.5 80.001s30.833 40.167 53.5 52.5s46.667 21.333 72 27s52.666 8.5 81.999 8.5c30 0 62.333 -3.66699 97 -11v12
c0 74.667 -36.667 112 -110 112c-48.667 0 -101.667 -15 -159 -45l-33 91c69.333 34 140.666 51 213.999 51c139.333 0 209 -72 209 -216v-311zM372.002 128.999l-0.000976562 99.001c-29.333 6.66699 -55.666 10 -78.999 10c-34 0 -63.5 -6.5 -88.5 -19.5
s-37.5 -34.833 -37.5 -65.5c0 -24.667 8.33301 -43.334 25 -56.001s37.667 -19 63 -19c38 0 77 17 117 51zM178.001 676c0 29.333 10.333 54.166 31 74.499s45.334 30.5 74.001 30.5s53.334 -10.167 74.001 -30.5s31 -45.166 31 -74.499s-10.333 -54.166 -31 -74.499
s-45.334 -30.5 -74.001 -30.5s-53.334 10.167 -74.001 30.5s-31 45.166 -31 74.499zM238.001 676c0 -12.667 4.33301 -23.334 13 -32.001s19.334 -13 32.001 -13s23.334 4.33301 32.001 13s13 19.334 13 32.001s-4.33301 23.334 -13 32.001s-19.334 13 -32.001 13
s-23.334 -4.33301 -32.001 -13s-13 -19.334 -13 -32.001z" />
    <glyph glyph-name="ae" unicode="&#xe6;" horiz-adv-x="908" 
d="M388 145c-9.33301 24.667 -15.667 52.668 -19 84.001c-30 6 -55.333 9 -76 9c-34 0 -63.5 -6.5 -88.5 -19.5s-37.5 -34.833 -37.5 -65.5c0 -24.667 8.33301 -43.334 25 -56.001s37.667 -19 63 -19c50.667 0 95 22.333 133 67zM776.999 167.001l82.001 -55.002
c-29.333 -42.667 -62 -74 -98 -94s-80.667 -30 -134 -30c-82 0 -146.333 27 -193 81c-54 -54 -121 -81 -201 -81c-51.333 0 -95 14 -131 42s-54 67.667 -54 119c0 30.667 6.5 57.334 19.5 80.001s30.833 40.167 53.5 52.5s46.667 21.333 72 27s52.666 8.5 81.999 8.5
c30 0 62.333 -3.66699 97 -11v12c0 74.667 -36.667 112 -110 112c-48.667 0 -101.667 -15 -159 -45l-33 91c69.333 34 140.666 51 213.999 51c80 0 136 -24.667 168 -74c47.333 49.333 106 74 176 74s128 -22.667 174 -68s69 -102.333 69 -171
c0 -15.333 -2 -35.666 -6 -60.999h-374c4 -40 18.833 -73.333 44.5 -100s58.5 -40 98.5 -40c62.667 0 110.334 26.667 143.001 80zM498 313.999h248.999c-1.33301 33.333 -13 61 -35 83s-49 33 -81 33c-35.333 0 -64.166 -10.5 -86.499 -31.5s-37.833 -49.167 -46.5 -84.5z
" />
    <glyph glyph-name="ccedilla" unicode="&#xe7;" horiz-adv-x="496" 
d="M410 132l62.998 -86c-44.667 -38.667 -102.667 -58 -174 -58c-9.33301 0 -16 0.333008 -20 1l-20 -51l1 -1c14.667 10.667 30.667 16 48 16c24 0 45 -9.33301 63 -28s27 -42 27 -70s-10.833 -52.833 -32.5 -74.5s-48.167 -32.5 -79.5 -32.5c-49.333 0 -86 22 -110 66
l64 30c8 -21.333 22 -32 42 -32c11.333 0 20.833 4 28.5 12s11.5 17.333 11.5 28c0 12 -3.83301 22.167 -11.5 30.5s-17.5 12.5 -29.5 12.5c-17.333 0 -29.666 -7 -36.999 -21l-68 35l39 92c-54 16 -97.167 46.833 -129.5 92.5s-48.5 100.5 -48.5 164.5
c0 76 25.333 139.833 76 191.5s114.334 77.5 191.001 77.5c62.667 0 118 -18.333 166 -55l-60 -90c-30 26 -64 39 -102 39c-42 0 -77.167 -15.833 -105.5 -47.5s-42.5 -70.167 -42.5 -115.5c0 -47.333 14.333 -86.5 43 -117.5s63.334 -46.5 104.001 -46.5
c39.333 0 73.666 12.667 102.999 38z" />
    <glyph glyph-name="egrave" unicode="&#xe8;" horiz-adv-x="576" 
d="M534 227h-375c4 -40 18.833 -73.333 44.5 -100s58.834 -40 99.501 -40c63.333 0 110.666 26.667 141.999 80l82 -55c-29.333 -42.667 -62 -74 -98 -94s-80.333 -30 -133 -30c-78 0 -140.667 24.833 -188 74.5s-71 113.5 -71 191.5c0 77.333 24.833 142.166 74.5 194.499
s111.167 78.5 184.5 78.5c70 0 128 -22.667 174 -68s69 -102.333 69 -171c0 -19.333 -1.66699 -39.666 -5 -60.999zM415 314c-1.33301 33.333 -13.001 61 -35.001 83s-49 33 -81 33c-35.333 0 -64.166 -10.5 -86.499 -31.5s-37.833 -49.167 -46.5 -84.5h249zM281.999 573
l-141 167l83 65l129 -178z" />
    <glyph glyph-name="eacute" unicode="&#xe9;" horiz-adv-x="576" 
d="M534 227h-375c4 -40 18.833 -73.333 44.5 -100s58.834 -40 99.501 -40c63.333 0 110.666 26.667 141.999 80l82 -55c-29.333 -42.667 -62 -74 -98 -94s-80.333 -30 -133 -30c-78 0 -140.667 24.833 -188 74.5s-71 113.5 -71 191.5c0 77.333 24.833 142.166 74.5 194.499
s111.167 78.5 184.5 78.5c70 0 128 -22.667 174 -68s69 -102.333 69 -171c0 -19.333 -1.66699 -39.666 -5 -60.999zM415 314c-1.33301 33.333 -13.001 61 -35.001 83s-49 33 -81 33c-35.333 0 -64.166 -10.5 -86.499 -31.5s-37.833 -49.167 -46.5 -84.5h249zM461.999 740
l-141 -167l-71 54l129 178z" />
    <glyph glyph-name="ecircumflex" unicode="&#xea;" horiz-adv-x="576" 
d="M534 227h-375c4 -40 18.833 -73.333 44.5 -100s58.834 -40 99.501 -40c63.333 0 110.666 26.667 141.999 80l82 -55c-29.333 -42.667 -62 -74 -98 -94s-80.333 -30 -133 -30c-78 0 -140.667 24.833 -188 74.5s-71 113.5 -71 191.5c0 77.333 24.833 142.166 74.5 194.499
s111.167 78.5 184.5 78.5c70 0 128 -22.667 174 -68s69 -102.333 69 -171c0 -19.333 -1.66699 -39.666 -5 -60.999zM415 314c-1.33301 33.333 -13.001 61 -35.001 83s-49 33 -81 33c-35.333 0 -64.166 -10.5 -86.499 -31.5s-37.833 -49.167 -46.5 -84.5h249zM236.999 786
h121l106 -163l-67 -43l-101 131l-99 -131l-69 43z" />
    <glyph glyph-name="edieresis" unicode="&#xeb;" horiz-adv-x="576" 
d="M534 227h-375c4 -40 18.833 -73.333 44.5 -100s58.834 -40 99.501 -40c63.333 0 110.666 26.667 141.999 80l82 -55c-29.333 -42.667 -62 -74 -98 -94s-80.333 -30 -133 -30c-78 0 -140.667 24.833 -188 74.5s-71 113.5 -71 191.5c0 77.333 24.833 142.166 74.5 194.499
s111.167 78.5 184.5 78.5c70 0 128 -22.667 174 -68s69 -102.333 69 -171c0 -19.333 -1.66699 -39.666 -5 -60.999zM415 314c-1.33301 33.333 -13.001 61 -35.001 83s-49 33 -81 33c-35.333 0 -64.166 -10.5 -86.499 -31.5s-37.833 -49.167 -46.5 -84.5h249zM244.999 599
h-122v113h122v-113zM470.999 599h-122v113h122v-113z" />
    <glyph glyph-name="igrave" unicode="&#xec;" horiz-adv-x="271" 
d="M196 0h-121v515h121v-515zM118 573l-141 167l83 65l129 -178z" />
    <glyph glyph-name="iacute" unicode="&#xed;" horiz-adv-x="271" 
d="M196 0h-121v515h121v-515zM294 740l-141 -167l-71 54l129 178z" />
    <glyph glyph-name="icircumflex" unicode="&#xee;" horiz-adv-x="271" 
d="M196 0h-121v515h121v-515zM76 786h121l106 -163l-67 -43l-101 131l-99 -131l-69 43z" />
    <glyph glyph-name="idieresis" unicode="&#xef;" horiz-adv-x="271" 
d="M92 599h-122v113h122v-113zM302 599h-123v113h123v-113zM196 0h-121v515h121v-515z" />
    <glyph glyph-name="eth" unicode="&#xf0;" horiz-adv-x="595" 
d="M233 593l-51 -91.999l-79 45l50 89c-16.667 8.66699 -45.667 21.667 -87 39l43 100c48 -22 79.667 -37 95 -45l48 87l80 -43l-47 -86c88.667 -52.667 156.334 -114.5 203.001 -185.5s70 -155.167 70 -252.5c0 -73.333 -24.833 -135.166 -74.5 -185.499
s-114.834 -75.5 -195.501 -75.5c-72 0 -131.833 24.667 -179.5 74s-71.5 107.666 -71.5 174.999s22.5 123.666 67.5 168.999s100.833 68 167.5 68c38.667 0 76.667 -10.667 114 -32c-34.667 58.667 -85.667 109 -153 151zM424 338.001
c-37.333 21.333 -77.3311 32.001 -119.998 32.001c-40.667 0 -74.834 -11.5 -102.501 -34.5s-41.5 -55.5 -41.5 -97.5c0 -40.667 12.667 -75.167 38 -103.5s57.666 -42.5 96.999 -42.5c48 0 83.333 15.167 106 45.5s34 68.833 34 115.5c0 23.333 -3.66699 51.666 -11 84.999
z" />
    <glyph glyph-name="ntilde" unicode="&#xf1;" horiz-adv-x="613" 
d="M75 515h109.999l6 -76c40.667 58.667 95.334 88 164.001 88c60 0 107.333 -22 142 -66c30.667 -40.667 46 -105 46 -193v-268h-121v259c0 59.333 -6.66699 100.333 -20 123c-14.667 26 -40.667 39 -78 39c-24 0 -47.5 -7.16699 -70.5 -21.5s-42.167 -33.5 -57.5 -57.5
v-342h-121v515zM227.999 604l-74 -8c-3.33301 11.333 -5 22 -5 32c0 29.333 10 53.166 30 71.499s46.333 27.5 79 27.5c24.667 0 52.834 -9.33301 84.501 -28s52.167 -28 61.5 -28c18 0 27.667 8.66699 29 26c0 4 -0.333008 6.66699 -1 8l74 8c3.33301 -11.333 5 -22 5 -32
c0 -29.333 -10 -53.166 -30 -71.499s-46.333 -27.5 -79 -27.5c-24.667 0 -52.834 9.33301 -84.501 28s-52.167 28 -61.5 28c-18 0 -27.667 -8.66699 -29 -26c0 -4 0.333008 -6.66699 1 -8z" />
    <glyph glyph-name="ograve" unicode="&#xf2;" horiz-adv-x="608" 
d="M304 527c76.667 0 140.334 -26 191.001 -78s76 -115.667 76 -191c0 -76 -25.333 -140 -76 -192s-114.334 -78 -191.001 -78s-140.334 26 -191.001 78s-76 116 -76 192c0 75.333 25.333 139 76 191s114.334 78 191.001 78zM448 258c0 45.333 -13.667 83.833 -41 115.5
s-61.666 47.5 -102.999 47.5s-75.666 -15.833 -102.999 -47.5s-41 -70.167 -41 -115.5c0 -46 13.667 -84.833 41 -116.5s61.666 -47.5 102.999 -47.5s75.666 15.833 102.999 47.5s41 70.5 41 116.5zM273 573l-141 167l83 65l129 -178z" />
    <glyph glyph-name="oacute" unicode="&#xf3;" horiz-adv-x="608" 
d="M304 527c76.667 0 140.334 -26 191.001 -78s76 -115.667 76 -191c0 -76 -25.333 -140 -76 -192s-114.334 -78 -191.001 -78s-140.334 26 -191.001 78s-76 116 -76 192c0 75.333 25.333 139 76 191s114.334 78 191.001 78zM448 258c0 45.333 -13.667 83.833 -41 115.5
s-61.666 47.5 -102.999 47.5s-75.666 -15.833 -102.999 -47.5s-41 -70.167 -41 -115.5c0 -46 13.667 -84.833 41 -116.5s61.666 -47.5 102.999 -47.5s75.666 15.833 102.999 47.5s41 70.5 41 116.5zM469 740l-141 -167l-71 54l129 178z" />
    <glyph glyph-name="ocircumflex" unicode="&#xf4;" horiz-adv-x="608" 
d="M304 527c76.667 0 140.334 -26 191.001 -78s76 -115.667 76 -191c0 -76 -25.333 -140 -76 -192s-114.334 -78 -191.001 -78s-140.334 26 -191.001 78s-76 116 -76 192c0 75.333 25.333 139 76 191s114.334 78 191.001 78zM448 258c0 45.333 -13.667 83.833 -41 115.5
s-61.666 47.5 -102.999 47.5s-75.666 -15.833 -102.999 -47.5s-41 -70.167 -41 -115.5c0 -46 13.667 -84.833 41 -116.5s61.666 -47.5 102.999 -47.5s75.666 15.833 102.999 47.5s41 70.5 41 116.5zM244 786h121l106 -163l-67 -43l-101 131l-99 -131l-69 43z" />
    <glyph glyph-name="otilde" unicode="&#xf5;" horiz-adv-x="608" 
d="M304 527c76.667 0 140.334 -26 191.001 -78s76 -115.667 76 -191c0 -76 -25.333 -140 -76 -192s-114.334 -78 -191.001 -78s-140.334 26 -191.001 78s-76 116 -76 192c0 75.333 25.333 139 76 191s114.334 78 191.001 78zM448 258c0 45.333 -13.667 83.833 -41 115.5
s-61.666 47.5 -102.999 47.5s-75.666 -15.833 -102.999 -47.5s-41 -70.167 -41 -115.5c0 -46 13.667 -84.833 41 -116.5s61.666 -47.5 102.999 -47.5s75.666 15.833 102.999 47.5s41 70.5 41 116.5zM214 604l-74 -8c-3.33301 11.333 -5 22 -5 32
c0 29.333 10 53.166 30 71.499s46.333 27.5 79 27.5c24.667 0 52.834 -9.33301 84.501 -28s52.167 -28 61.5 -28c18 0 27.667 8.66699 29 26c0 4 -0.333008 6.66699 -1 8l74 8c3.33301 -11.333 5 -22 5 -32c0 -29.333 -10 -53.166 -30 -71.499s-46.333 -27.5 -79 -27.5
c-24.667 0 -52.834 9.33301 -84.501 28s-52.167 28 -61.5 28c-18 0 -27.667 -8.66699 -29 -26c0 -4 0.333008 -6.66699 1 -8z" />
    <glyph glyph-name="odieresis" unicode="&#xf6;" horiz-adv-x="608" 
d="M304 527c76.667 0 140.334 -26 191.001 -78s76 -115.667 76 -191c0 -76 -25.333 -140 -76 -192s-114.334 -78 -191.001 -78s-140.334 26 -191.001 78s-76 116 -76 192c0 75.333 25.333 139 76 191s114.334 78 191.001 78zM448 258c0 45.333 -13.667 83.833 -41 115.5
s-61.666 47.5 -102.999 47.5s-75.666 -15.833 -102.999 -47.5s-41 -70.167 -41 -115.5c0 -46 13.667 -84.833 41 -116.5s61.666 -47.5 102.999 -47.5s75.666 15.833 102.999 47.5s41 70.5 41 116.5zM252 599h-122v113h122v-113zM478 599h-122v113h122v-113z" />
    <glyph glyph-name="divide" unicode="&#xf7;" 
d="M24 263v99h501v-99h-501zM341 47h-133v136h133v-136zM341 442h-133v136h133v-136z" />
    <glyph glyph-name="oslash" unicode="&#xf8;" horiz-adv-x="608" 
d="M508 495l-23.999 -36c58 -51.333 87 -118.333 87 -201c0 -76 -25.333 -140 -76 -192s-114.334 -78 -191.001 -78c-42.667 0 -82.667 9 -120 27l-28 -41l-65 43l29 42c-55.333 52 -83 118.333 -83 199c0 76 25.333 139.833 76 191.5s114.334 77.5 191.001 77.5
c41.333 0 79.666 -8.33301 114.999 -25l24 36zM448.001 258c0 38.667 -10.666 72.333 -31.999 101l-170 -252c16.667 -8.66699 36 -13 58 -13c41.333 0 75.666 15.833 102.999 47.5s41 70.5 41 116.5zM160.002 257.999c0 -37.333 9.33301 -70 28 -98l168 250
c-16 7.33301 -33.333 11 -52 11c-42 0 -76.5 -15.667 -103.5 -47s-40.5 -70 -40.5 -116z" />
    <glyph glyph-name="ugrave" unicode="&#xf9;" horiz-adv-x="613" 
d="M538 0h-109.999l-6 76c-40.667 -58.667 -95.334 -88 -164.001 -88c-60 0 -107.333 22 -142 66c-30.667 40.667 -46 105 -46 193v268h121v-259c0 -59.333 6.66699 -100.333 20 -123c15.333 -26 41.333 -39 78 -39c24 0 47.5 7.16699 70.5 21.5s42.167 33.5 57.5 57.5v342
h121v-515zM301.001 573l-141 167l83 65l129 -178z" />
    <glyph glyph-name="uacute" unicode="&#xfa;" horiz-adv-x="613" 
d="M538 0h-109.999l-6 76c-40.667 -58.667 -95.334 -88 -164.001 -88c-60 0 -107.333 22 -142 66c-30.667 40.667 -46 105 -46 193v268h121v-259c0 -59.333 6.66699 -100.333 20 -123c15.333 -26 41.333 -39 78 -39c24 0 47.5 7.16699 70.5 21.5s42.167 33.5 57.5 57.5v342
h121v-515zM464.001 740l-141 -167l-71 54l129 178z" />
    <glyph glyph-name="ucircumflex" unicode="&#xfb;" horiz-adv-x="613" 
d="M538 0h-109.999l-6 76c-40.667 -58.667 -95.334 -88 -164.001 -88c-60 0 -107.333 22 -142 66c-30.667 40.667 -46 105 -46 193v268h121v-259c0 -59.333 6.66699 -100.333 20 -123c15.333 -26 41.333 -39 78 -39c24 0 47.5 7.16699 70.5 21.5s42.167 33.5 57.5 57.5v342
h121v-515zM249.001 786h121l106 -163l-67 -43l-101 131l-99 -131l-69 43z" />
    <glyph glyph-name="udieresis" unicode="&#xfc;" horiz-adv-x="613" 
d="M538 0h-109.999l-6 76c-40.667 -58.667 -95.334 -88 -164.001 -88c-60 0 -107.333 22 -142 66c-30.667 40.667 -46 105 -46 193v268h121v-259c0 -59.333 6.66699 -100.333 20 -123c15.333 -26 41.333 -39 78 -39c24 0 47.5 7.16699 70.5 21.5s42.167 33.5 57.5 57.5v342
h121v-515zM252.001 599h-122v113h122v-113zM478.001 599h-122v113h122v-113z" />
    <glyph glyph-name="yacute" unicode="&#xfd;" horiz-adv-x="509" 
d="M4 515h133l116 -341h2l118 341h132l-290 -749l-108 41l82 217zM402 740l-141 -167l-71 54l129 178z" />
    <glyph glyph-name="thorn" unicode="&#xfe;" horiz-adv-x="637" 
d="M75 750h121.001v-294c18 23.333 41.333 41 70 53s57.667 18 87 18c70 0 128.667 -26.167 176 -78.5s71 -116.5 71 -192.5c0 -72.667 -23.5 -135.5 -70.5 -188.5s-106.5 -79.5 -178.5 -79.5c-64.667 0 -116.334 21.333 -155.001 64v-302h-121v1000zM196.001 341
l-0.000976562 -181.999c34 -43.333 78 -65 132 -65c47.333 0 84 16.667 110 50s39 71.666 39 114.999c0 44 -13.667 82 -41 114s-62.666 48 -105.999 48c-26.667 0 -52.167 -6.66699 -76.5 -20s-43.5 -33.333 -57.5 -60z" />
    <glyph glyph-name="ydieresis" unicode="&#xff;" horiz-adv-x="509" 
d="M4 515h133l116 -341h2l118 341h132l-290 -749l-108 41l82 217zM205 599h-122v113h122v-113zM431 599h-122v113h122v-113z" />
    <glyph glyph-name="Amacron" unicode="&#x100;" horiz-adv-x="674" 
d="M14 0l279 700h103l265 -700h-142l-49 138h-270l-50 -138h-136zM336 511l-98 -269h195l-96 269h-1zM518 773h-350v85h350v-85z" />
    <glyph glyph-name="amacron" unicode="&#x101;" horiz-adv-x="563" 
d="M493 0l-107.998 -0.000976562l-6 48c-33.333 -40 -82 -60 -146 -60c-51.333 0 -95 14 -131 42s-54 67.667 -54 119c0 30.667 6.5 57.334 19.5 80.001s30.833 40.167 53.5 52.5s46.667 21.333 72 27s52.666 8.5 81.999 8.5c30 0 62.333 -3.66699 97 -11v12
c0 74.667 -36.667 112 -110 112c-48.667 0 -101.667 -15 -159 -45l-33 91c69.333 34 140.666 51 213.999 51c139.333 0 209 -72 209 -216v-311zM372.002 128.999l-0.000976562 99.001c-29.333 6.66699 -55.666 10 -78.999 10c-34 0 -63.5 -6.5 -88.5 -19.5
s-37.5 -34.833 -37.5 -65.5c0 -24.667 8.33301 -43.334 25 -56.001s37.667 -19 63 -19c38 0 77 17 117 51zM447.001 609h-324v86h324v-86z" />
    <glyph glyph-name="Abreve" unicode="&#x102;" horiz-adv-x="674" 
d="M14 0l279 700h103l265 -700h-142l-49 138h-270l-50 -138h-136zM336 511l-98 -269h195l-96 269h-1zM500 914l-0.00195312 -9c0 -43.333 -15.167 -80 -45.5 -110s-67.166 -45 -110.499 -45s-80.166 15 -110.499 45s-45.5 66.667 -45.5 110v9h89
c-0.666992 -2.66699 -1 -6 -1 -10c0 -20.667 6.33301 -38 19 -52s29 -21 49 -21s36.833 7.16699 50.5 21.5s20.5 31.5 20.5 51.5c0 4 -0.333008 7.33301 -1 10h86z" />
    <glyph glyph-name="abreve" unicode="&#x103;" horiz-adv-x="563" 
d="M493 0l-107.998 -0.000976562l-6 48c-33.333 -40 -82 -60 -146 -60c-51.333 0 -95 14 -131 42s-54 67.667 -54 119c0 30.667 6.5 57.334 19.5 80.001s30.833 40.167 53.5 52.5s46.667 21.333 72 27s52.666 8.5 81.999 8.5c30 0 62.333 -3.66699 97 -11v12
c0 74.667 -36.667 112 -110 112c-48.667 0 -101.667 -15 -159 -45l-33 91c69.333 34 140.666 51 213.999 51c139.333 0 209 -72 209 -216v-311zM372.002 128.999l-0.000976562 99.001c-29.333 6.66699 -55.666 10 -78.999 10c-34 0 -63.5 -6.5 -88.5 -19.5
s-37.5 -34.833 -37.5 -65.5c0 -24.667 8.33301 -43.334 25 -56.001s37.667 -19 63 -19c38 0 77 17 117 51zM441.001 749l-0.00195312 -17c0 -43.333 -15.167 -80 -45.5 -110s-67.166 -45 -110.499 -45s-80.166 15 -110.499 45s-45.5 66.667 -45.5 110v17h88
c-0.666992 -2.66699 -1 -8.66699 -1 -18c0 -20 6.5 -37.167 19.5 -51.5s29.5 -21.5 49.5 -21.5s36.833 7.16699 50.5 21.5s20.5 31.5 20.5 51.5c0 9.33301 -0.333008 15.333 -1 18h86z" />
    <glyph glyph-name="Aogonek" unicode="&#x104;" horiz-adv-x="674" 
d="M336 511l-98 -269h195l-96 269h-1zM14 0l278.999 700.001h103l265 -700c-40 -7.33301 -70.333 -20 -91 -38s-31 -38.667 -31 -62c0 -27.333 15.667 -41 47 -41c14.667 0 30 4.33301 46 13l32 -67c-26.667 -20 -60.667 -30 -102 -30c-34.667 0 -64.167 9.5 -88.5 28.5
s-36.5 44.167 -36.5 75.5c0 25.333 6.83301 49.166 20.5 71.499s33.834 39.833 60.501 52.5l-48 135h-270l-50 -138h-136z" />
    <glyph glyph-name="aogonek" unicode="&#x105;" horiz-adv-x="563" 
d="M372 129l-0.000976562 99.001c-29.333 6.66699 -55.666 10 -78.999 10c-34 0 -63.5 -6.5 -88.5 -19.5s-37.5 -34.833 -37.5 -65.5c0 -24.667 8.33301 -43.334 25 -56.001s37.667 -19 63 -19c38 0 77 17 117 51zM492.999 311.001l0.00195312 -311.002
c-34 -8.66699 -61.333 -22.167 -82 -40.5s-31 -38.166 -31 -59.499c0 -27.333 15.667 -41 47 -41c14.667 0 30 4.33301 46 13l32 -67c-26.667 -20 -60.667 -30 -102 -30c-34.667 0 -64.167 9.5 -88.5 28.5s-36.5 44.167 -36.5 75.5c0 24.667 9 48 27 70s44.333 40.333 79 55
l-5 44c-33.333 -40 -82 -60 -146 -60c-51.333 0 -95 14 -131 42s-54 67.667 -54 119c0 30.667 6.5 57.334 19.5 80.001s30.833 40.167 53.5 52.5s46.667 21.333 72 27s52.666 8.5 81.999 8.5c30 0 62.333 -3.66699 97 -11v12c0 74.667 -36.667 112 -110 112
c-48.667 0 -101.667 -15 -159 -45l-33 91c69.333 34 140.666 51 213.999 51c139.333 0 209 -72 209 -216z" />
    <glyph glyph-name="Cacute" unicode="&#x106;" horiz-adv-x="674" 
d="M185 350c0 -76.667 22.168 -138 66.501 -184s103.166 -69 176.499 -69c54.667 0 105 18 151 54l69 -90c-68.667 -48.667 -143 -73 -223 -73c-106.667 0 -195.167 33.5 -265.5 100.5s-105.5 154.167 -105.5 261.5c0 102.667 36.333 188.667 109 258s161 104 265 104
c69.333 0 137.333 -20.667 204 -62l-59 -96c-46 32.667 -94.333 49 -145 49c-70 0 -128 -24.167 -174 -72.5s-69 -108.5 -69 -180.5zM586.001 863l-179 -127l-55 69l170 142z" />
    <glyph glyph-name="cacute" unicode="&#x107;" horiz-adv-x="496" 
d="M410 132l62.999 -86c-44.667 -38.667 -102.667 -58 -174 -58c-76 0 -138.667 25 -188 75s-74 115 -74 195c0 76 25.333 139.833 76 191.5s114.334 77.5 191.001 77.5c62.667 0 118 -18.333 166 -55l-60 -90c-30 26 -64 39 -102 39c-42 0 -77.167 -15.833 -105.5 -47.5
s-42.5 -70.167 -42.5 -115.5c0 -47.333 14.333 -86.5 43 -117.5s63.334 -46.5 104.001 -46.5c39.333 0 73.666 12.667 102.999 38zM468.999 740l-141 -167l-71 54l129 178z" />
    <glyph glyph-name="Ccircumflex" unicode="&#x108;" horiz-adv-x="674" 
d="M185 350c0 -76.667 22.168 -138 66.501 -184s103.166 -69 176.499 -69c54.667 0 105 18 151 54l69 -90c-68.667 -48.667 -143 -73 -223 -73c-106.667 0 -195.167 33.5 -265.5 100.5s-105.5 154.167 -105.5 261.5c0 102.667 36.333 188.667 109 258s161 104 265 104
c69.333 0 137.333 -20.667 204 -62l-59 -96c-46 32.667 -94.333 49 -145 49c-70 0 -128 -24.167 -174 -72.5s-69 -108.5 -69 -180.5zM356.001 928h132l110 -138l-70 -53l-108 115l-107 -115l-71 53z" />
    <glyph glyph-name="ccircumflex" unicode="&#x109;" horiz-adv-x="496" 
d="M410 132l62.999 -86c-44.667 -38.667 -102.667 -58 -174 -58c-76 0 -138.667 25 -188 75s-74 115 -74 195c0 76 25.333 139.833 76 191.5s114.334 77.5 191.001 77.5c62.667 0 118 -18.333 166 -55l-60 -90c-30 26 -64 39 -102 39c-42 0 -77.167 -15.833 -105.5 -47.5
s-42.5 -70.167 -42.5 -115.5c0 -47.333 14.333 -86.5 43 -117.5s63.334 -46.5 104.001 -46.5c39.333 0 73.666 12.667 102.999 38zM235.999 786h121l106 -163l-67 -43l-101 131l-99 -131l-69 43z" />
    <glyph glyph-name="Cdotaccent" unicode="&#x10a;" horiz-adv-x="674" 
d="M185 350c0 -76.667 22.168 -138 66.501 -184s103.166 -69 176.499 -69c54.667 0 105 18 151 54l69 -90c-68.667 -48.667 -143 -73 -223 -73c-106.667 0 -195.167 33.5 -265.5 100.5s-105.5 154.167 -105.5 261.5c0 102.667 36.333 188.667 109 258s161 104 265 104
c69.333 0 137.333 -20.667 204 -62l-59 -96c-46 32.667 -94.333 49 -145 49c-70 0 -128 -24.167 -174 -72.5s-69 -108.5 -69 -180.5zM481.001 763h-128v116h128v-116z" />
    <glyph glyph-name="cdotaccent" unicode="&#x10b;" horiz-adv-x="496" 
d="M410 132l62.999 -86c-44.667 -38.667 -102.667 -58 -174 -58c-76 0 -138.667 25 -188 75s-74 115 -74 195c0 76 25.333 139.833 76 191.5s114.334 77.5 191.001 77.5c62.667 0 118 -18.333 166 -55l-60 -90c-30 26 -64 39 -102 39c-42 0 -77.167 -15.833 -105.5 -47.5
s-42.5 -70.167 -42.5 -115.5c0 -47.333 14.333 -86.5 43 -117.5s63.334 -46.5 104.001 -46.5c39.333 0 73.666 12.667 102.999 38zM348.999 599h-121v113h121v-113z" />
    <glyph glyph-name="Ccaron" unicode="&#x10c;" horiz-adv-x="674" 
d="M185 350c0 -76.667 22.168 -138 66.501 -184s103.166 -69 176.499 -69c54.667 0 105 18 151 54l69 -90c-68.667 -48.667 -143 -73 -223 -73c-106.667 0 -195.167 33.5 -265.5 100.5s-105.5 154.167 -105.5 261.5c0 102.667 36.333 188.667 109 258s161 104 265 104
c69.333 0 137.333 -20.667 204 -62l-59 -96c-46 32.667 -94.333 49 -145 49c-70 0 -128 -24.167 -174 -72.5s-69 -108.5 -69 -180.5zM485.001 748h-132l-110 138l71 53l108 -115l107 115l70 -53z" />
    <glyph glyph-name="ccaron" unicode="&#x10d;" horiz-adv-x="496" 
d="M410 132l62.999 -86c-44.667 -38.667 -102.667 -58 -174 -58c-76 0 -138.667 25 -188 75s-74 115 -74 195c0 76 25.333 139.833 76 191.5s114.334 77.5 191.001 77.5c62.667 0 118 -18.333 166 -55l-60 -90c-30 26 -64 39 -102 39c-42 0 -77.167 -15.833 -105.5 -47.5
s-42.5 -70.167 -42.5 -115.5c0 -47.333 14.333 -86.5 43 -117.5s63.334 -46.5 104.001 -46.5c39.333 0 73.666 12.667 102.999 38zM354.999 582h-121l-106 163l69 43l101 -131l98 131l68 -43z" />
    <glyph glyph-name="Dcaron" unicode="&#x10e;" horiz-adv-x="717" 
d="M85 0l0.00195312 700.001h198c37.333 0 73.5 -3.83301 108.5 -11.5s69.167 -20.334 102.5 -38.001s62.333 -39.5 87 -65.5s44.5 -59 59.5 -99s22.5 -84.333 22.5 -133c0 -62 -11.167 -116.5 -33.5 -163.5s-52.333 -83.833 -90 -110.5s-78.834 -46.5 -123.501 -59.5
s-92.334 -19.5 -143.001 -19.5h-188zM209.002 594.001v-488h23c200 0 300 79.333 300 238c0 80.667 -23.333 142.5 -70 185.5s-112 64.5 -196 64.5h-57zM388.002 748.001h-132l-110 138l71 53l108 -115l107 115l70 -53z" />
    <glyph glyph-name="dcaron" unicode="&#x10f;" horiz-adv-x="679" 
d="M562 750l-0.000976562 -750h-111l-6 66c-17.333 -26 -40.666 -45.5 -69.999 -58.5s-59.666 -19.5 -90.999 -19.5c-70.667 0 -129.5 26.167 -176.5 78.5s-70.5 116.5 -70.5 192.5c0 72.667 23.5 135.5 70.5 188.5s106.5 79.5 178.5 79.5
c63.333 0 114.666 -21.667 153.999 -65v288h122zM439.999 174v181.999c-34 43.333 -77.667 65 -131 65c-47.333 0 -84 -16.667 -110 -50s-39 -71.666 -39 -114.999c0 -44 13.5 -82 40.5 -114s62.5 -48 106.5 -48c26 0 51.167 6.66699 75.5 20s43.5 33.333 57.5 60z
M692.999 539.999h-101l42 210h114z" />
    <glyph glyph-name="Dcroat" unicode="&#x110;" horiz-adv-x="717" 
d="M85 0l0.00195312 316.001h-68v90h68v294h198c37.333 0 73.5 -3.83301 108.5 -11.5s69.167 -20.334 102.5 -38.001s62.333 -39.5 87 -65.5s44.5 -59 59.5 -99s22.5 -84.333 22.5 -133c0 -62 -11.167 -116.5 -33.5 -163.5s-52.333 -83.833 -90 -110.5
s-78.834 -46.5 -123.501 -59.5s-92.334 -19.5 -143.001 -19.5h-188zM532.002 344.001c0 80.667 -23.333 142.5 -70 185.5s-112 64.5 -196 64.5h-57v-188h116v-90h-116v-210h23c200 0 300 79.333 300 238z" />
    <glyph glyph-name="dcroat" unicode="&#x111;" horiz-adv-x="637" 
d="M284 -12c-70.667 0 -129.501 26.167 -176.501 78.5s-70.5 116.5 -70.5 192.5c0 72.667 23.5 135.5 70.5 188.5s106.5 79.5 178.5 79.5c63.333 0 114.666 -21.667 153.999 -65v125h-161v86h161v77h122v-77h68v-86h-68v-587h-111l-6 66
c-17.333 -26 -40.666 -45.5 -69.999 -58.5s-59.666 -19.5 -90.999 -19.5zM306.999 94c26 0 51.167 6.66602 75.5 19.999s43.5 33.333 57.5 60v182c-34 43.333 -77.667 65 -131 65c-47.333 0 -84 -16.667 -110 -50s-39 -71.666 -39 -114.999c0 -44 13.5 -82 40.5 -114
s62.5 -48 106.5 -48z" />
    <glyph glyph-name="Emacron" unicode="&#x112;" horiz-adv-x="580" 
d="M522 0h-437v700h437v-106h-313v-181h313v-106h-313v-201h313v-106zM486 773h-350v85h350v-85z" />
    <glyph glyph-name="emacron" unicode="&#x113;" horiz-adv-x="576" 
d="M534 227h-375c4 -40 18.833 -73.333 44.5 -100s58.834 -40 99.501 -40c63.333 0 110.666 26.667 141.999 80l82 -55c-29.333 -42.667 -62 -74 -98 -94s-80.333 -30 -133 -30c-78 0 -140.667 24.833 -188 74.5s-71 113.5 -71 191.5c0 77.333 24.833 142.166 74.5 194.499
s111.167 78.5 184.5 78.5c70 0 128 -22.667 174 -68s69 -102.333 69 -171c0 -19.333 -1.66699 -39.666 -5 -60.999zM415 314c-1.33301 33.333 -13.001 61 -35.001 83s-49 33 -81 33c-35.333 0 -64.166 -10.5 -86.499 -31.5s-37.833 -49.167 -46.5 -84.5h249zM460.999 609
h-324v86h324v-86z" />
    <glyph glyph-name="Ebreve" unicode="&#x114;" horiz-adv-x="580" 
d="M522 0h-437v700h437v-106h-313v-181h313v-106h-313v-201h313v-106zM474 914l-0.00195312 -9c0 -43.333 -15.167 -80 -45.5 -110s-67.166 -45 -110.499 -45s-80.166 15 -110.499 45s-45.5 66.667 -45.5 110v9h89c-0.666992 -2.66699 -1 -6 -1 -10
c0 -20.667 6.33301 -38 19 -52s29 -21 49 -21s36.833 7.16699 50.5 21.5s20.5 31.5 20.5 51.5c0 4 -0.333008 7.33301 -1 10h86z" />
    <glyph glyph-name="ebreve" unicode="&#x115;" horiz-adv-x="576" 
d="M534 227h-375c4 -40 18.833 -73.333 44.5 -100s58.834 -40 99.501 -40c63.333 0 110.666 26.667 141.999 80l82 -55c-29.333 -42.667 -62 -74 -98 -94s-80.333 -30 -133 -30c-78 0 -140.667 24.833 -188 74.5s-71 113.5 -71 191.5c0 77.333 24.833 142.166 74.5 194.499
s111.167 78.5 184.5 78.5c70 0 128 -22.667 174 -68s69 -102.333 69 -171c0 -19.333 -1.66699 -39.666 -5 -60.999zM415 314c-1.33301 33.333 -13.001 61 -35.001 83s-49 33 -81 33c-35.333 0 -64.166 -10.5 -86.499 -31.5s-37.833 -49.167 -46.5 -84.5h249zM453.999 749
l-0.00195312 -17c0 -43.333 -15.167 -80 -45.5 -110s-67.166 -45 -110.499 -45s-80.166 15 -110.499 45s-45.5 66.667 -45.5 110v17h88c-0.666992 -2.66699 -1 -8.66699 -1 -18c0 -20 6.5 -37.167 19.5 -51.5s29.5 -21.5 49.5 -21.5s36.833 7.16699 50.5 21.5
s20.5 31.5 20.5 51.5c0 9.33301 -0.333008 15.333 -1 18h86z" />
    <glyph glyph-name="Edotaccent" unicode="&#x116;" horiz-adv-x="580" 
d="M522 0h-437v700h437v-106h-313v-181h313v-106h-313v-201h313v-106zM377 763h-128v116h128v-116z" />
    <glyph glyph-name="edotaccent" unicode="&#x117;" horiz-adv-x="576" 
d="M534 227h-375c4 -40 18.833 -73.333 44.5 -100s58.834 -40 99.501 -40c63.333 0 110.666 26.667 141.999 80l82 -55c-29.333 -42.667 -62 -74 -98 -94s-80.333 -30 -133 -30c-78 0 -140.667 24.833 -188 74.5s-71 113.5 -71 191.5c0 77.333 24.833 142.166 74.5 194.499
s111.167 78.5 184.5 78.5c70 0 128 -22.667 174 -68s69 -102.333 69 -171c0 -19.333 -1.66699 -39.666 -5 -60.999zM415 314c-1.33301 33.333 -13.001 61 -35.001 83s-49 33 -81 33c-35.333 0 -64.166 -10.5 -86.499 -31.5s-37.833 -49.167 -46.5 -84.5h249zM353.999 599
h-121v113h121v-113z" />
    <glyph glyph-name="Eogonek" unicode="&#x118;" horiz-adv-x="580" 
d="M522 0c-37.333 -6 -66.5 -18.5 -87.5 -37.5s-31.5 -39.833 -31.5 -62.5c0 -27.333 15.667 -41 47 -41c14.667 0 30 4.33301 46 13l32 -67c-26.667 -20 -60.667 -30 -102 -30c-34.667 0 -64 9.5 -88 28.5s-36 44.167 -36 75.5c0 54.667 28.667 95 86 121h-303v700h437
v-106h-313v-181h313v-106h-313v-201h313v-106z" />
    <glyph glyph-name="eogonek" unicode="&#x119;" horiz-adv-x="560" 
d="M415 314c-1.33301 33.333 -13.001 61 -35.001 83s-49 33 -81 33c-35.333 0 -64.166 -10.5 -86.499 -31.5s-37.833 -49.167 -46.5 -84.5h249zM526.999 112c-36.667 -54.667 -80.667 -90.999 -132 -108.999c-28.667 -10 -50.667 -23.5 -66 -40.5s-23 -35.833 -23 -56.5
c0 -14.667 4 -26.167 12 -34.5s19.333 -12.5 34 -12.5s30 4.33301 46 13l33 -67c-28 -20 -62 -30 -102 -30c-35.333 0 -65 9.5 -89 28.5s-36 44.167 -36 75.5c0 46.667 19.667 83.667 59 111c-69.333 7.33301 -124.333 35.166 -165 83.499s-61 108.5 -61 180.5
c0 77.333 24.833 142.166 74.5 194.499s111.167 78.5 184.5 78.5c70 0 128 -22.667 174 -68s69 -102.333 69 -171c0 -19.333 -1.66699 -39.666 -5 -60.999h-375c4 -40 18.833 -73.333 44.5 -100s58.834 -40 99.501 -40c63.333 0 110.666 26.667 141.999 80z" />
    <glyph glyph-name="Ecaron" unicode="&#x11a;" horiz-adv-x="580" 
d="M522 0h-437v700h437v-106h-313v-181h313v-106h-313v-201h313v-106zM371 748h-132l-110 138l71 53l108 -115l107 115l70 -53z" />
    <glyph glyph-name="ecaron" unicode="&#x11b;" horiz-adv-x="576" 
d="M534 227h-375c4 -40 18.833 -73.333 44.5 -100s58.834 -40 99.501 -40c63.333 0 110.666 26.667 141.999 80l82 -55c-29.333 -42.667 -62 -74 -98 -94s-80.333 -30 -133 -30c-78 0 -140.667 24.833 -188 74.5s-71 113.5 -71 191.5c0 77.333 24.833 142.166 74.5 194.499
s111.167 78.5 184.5 78.5c70 0 128 -22.667 174 -68s69 -102.333 69 -171c0 -19.333 -1.66699 -39.666 -5 -60.999zM415 314c-1.33301 33.333 -13.001 61 -35.001 83s-49 33 -81 33c-35.333 0 -64.166 -10.5 -86.499 -31.5s-37.833 -49.167 -46.5 -84.5h249zM354.999 582
h-121l-106 163l69 43l101 -131l98 131l68 -43z" />
    <glyph glyph-name="Gcircumflex" unicode="&#x11c;" horiz-adv-x="797" 
d="M602 290h-173.001v106h297v-269c-34.667 -45.333 -78 -79.833 -130 -103.5s-108 -35.5 -168 -35.5c-108 0 -197.333 33.667 -268 101s-106 154.333 -106 261c0 102.667 36.333 188.667 109 258s161 104 265 104c113.333 0 208.333 -44 285 -132l-87 -74
c-56.667 64.667 -122.667 97 -198 97c-70 0 -128 -24.167 -174 -72.5s-69 -108.5 -69 -180.5c0 -76 22.333 -137.167 67 -183.5s103.334 -69.5 176.001 -69.5c67.333 0 125.333 22.667 174 68v125zM365.999 928h132l110 -138l-70 -53l-108 115l-107 -115l-71 53z" />
    <glyph glyph-name="gcircumflex" unicode="&#x11d;" horiz-adv-x="631" 
d="M562 515l0.000976562 -488.001c0 -53.333 -10.333 -98.666 -31 -135.999c-42.667 -78 -119.334 -117 -230.001 -117c-88 0 -165.667 23.333 -233 70l45 100c26 -20 56 -35.667 90 -47s65.667 -17 95 -17c42 0 76.167 11.167 102.5 33.5s39.5 55.833 39.5 100.5v58
c-17.333 -24 -40.333 -42 -69 -54s-58 -18 -88 -18c-70 0 -128.5 25.5 -175.5 76.5s-70.5 113.833 -70.5 188.5c0 72 23.5 133.667 70.5 185s106.5 77 178.5 77c29.333 0 58.5 -6 87.5 -18s52.833 -29.667 71.5 -53l6 59h111zM440.001 184.999v171.002
c-34 43.333 -77.667 65 -131 65c-47.333 0 -84 -15.833 -110 -47.5s-39 -68.834 -39 -111.501s13.5 -79.334 40.5 -110.001s62.167 -46 105.5 -46c26.667 0 52.167 6.66699 76.5 20s43.5 33 57.5 59zM248.001 786.001h121l106 -163l-67 -43l-101 131l-99 -131l-69 43z" />
    <glyph glyph-name="Gbreve" unicode="&#x11e;" horiz-adv-x="797" 
d="M602 290h-173.001v106h297v-269c-34.667 -45.333 -78 -79.833 -130 -103.5s-108 -35.5 -168 -35.5c-108 0 -197.333 33.667 -268 101s-106 154.333 -106 261c0 102.667 36.333 188.667 109 258s161 104 265 104c113.333 0 208.333 -44 285 -132l-87 -74
c-56.667 64.667 -122.667 97 -198 97c-70 0 -128 -24.167 -174 -72.5s-69 -108.5 -69 -180.5c0 -76 22.333 -137.167 67 -183.5s103.334 -69.5 176.001 -69.5c67.333 0 125.333 22.667 174 68v125zM587.999 914l-0.00195312 -9c0 -43.333 -15.167 -80 -45.5 -110
s-67.166 -45 -110.499 -45s-80.166 15 -110.499 45s-45.5 66.667 -45.5 110v9h89c-0.666992 -2.66699 -1 -6 -1 -10c0 -20.667 6.33301 -38 19 -52s29 -21 49 -21s36.833 7.16699 50.5 21.5s20.5 31.5 20.5 51.5c0 4 -0.333008 7.33301 -1 10h86z" />
    <glyph glyph-name="gbreve" unicode="&#x11f;" horiz-adv-x="631" 
d="M562 515l0.000976562 -488.001c0 -53.333 -10.333 -98.666 -31 -135.999c-42.667 -78 -119.334 -117 -230.001 -117c-88 0 -165.667 23.333 -233 70l45 100c26 -20 56 -35.667 90 -47s65.667 -17 95 -17c42 0 76.167 11.167 102.5 33.5s39.5 55.833 39.5 100.5v58
c-17.333 -24 -40.333 -42 -69 -54s-58 -18 -88 -18c-70 0 -128.5 25.5 -175.5 76.5s-70.5 113.833 -70.5 188.5c0 72 23.5 133.667 70.5 185s106.5 77 178.5 77c29.333 0 58.5 -6 87.5 -18s52.833 -29.667 71.5 -53l6 59h111zM440.001 184.999v171.002
c-34 43.333 -77.667 65 -131 65c-47.333 0 -84 -15.833 -110 -47.5s-39 -68.834 -39 -111.501s13.5 -79.334 40.5 -110.001s62.167 -46 105.5 -46c26.667 0 52.167 6.66699 76.5 20s43.5 33 57.5 59zM462.001 749.001l-0.00195312 -17c0 -43.333 -15.167 -80 -45.5 -110
s-67.166 -45 -110.499 -45s-80.166 15 -110.499 45s-45.5 66.667 -45.5 110v17h88c-0.666992 -2.66699 -1 -8.66699 -1 -18c0 -20 6.5 -37.167 19.5 -51.5s29.5 -21.5 49.5 -21.5s36.833 7.16699 50.5 21.5s20.5 31.5 20.5 51.5c0 9.33301 -0.333008 15.333 -1 18h86z" />
    <glyph glyph-name="Gdotaccent" unicode="&#x120;" horiz-adv-x="797" 
d="M602 290h-173.001v106h297v-269c-34.667 -45.333 -78 -79.833 -130 -103.5s-108 -35.5 -168 -35.5c-108 0 -197.333 33.667 -268 101s-106 154.333 -106 261c0 102.667 36.333 188.667 109 258s161 104 265 104c113.333 0 208.333 -44 285 -132l-87 -74
c-56.667 64.667 -122.667 97 -198 97c-70 0 -128 -24.167 -174 -72.5s-69 -108.5 -69 -180.5c0 -76 22.333 -137.167 67 -183.5s103.334 -69.5 176.001 -69.5c67.333 0 125.333 22.667 174 68v125zM481.999 763h-128v116h128v-116z" />
    <glyph glyph-name="gdotaccent" unicode="&#x121;" horiz-adv-x="631" 
d="M562 515l0.000976562 -488.001c0 -53.333 -10.333 -98.666 -31 -135.999c-42.667 -78 -119.334 -117 -230.001 -117c-88 0 -165.667 23.333 -233 70l45 100c26 -20 56 -35.667 90 -47s65.667 -17 95 -17c42 0 76.167 11.167 102.5 33.5s39.5 55.833 39.5 100.5v58
c-17.333 -24 -40.333 -42 -69 -54s-58 -18 -88 -18c-70 0 -128.5 25.5 -175.5 76.5s-70.5 113.833 -70.5 188.5c0 72 23.5 133.667 70.5 185s106.5 77 178.5 77c29.333 0 58.5 -6 87.5 -18s52.833 -29.667 71.5 -53l6 59h111zM440.001 184.999v171.002
c-34 43.333 -77.667 65 -131 65c-47.333 0 -84 -15.833 -110 -47.5s-39 -68.834 -39 -111.501s13.5 -79.334 40.5 -110.001s62.167 -46 105.5 -46c26.667 0 52.167 6.66699 76.5 20s43.5 33 57.5 59zM360.001 599.001h-121v113h121v-113z" />
    <glyph glyph-name="Gcommaaccent" unicode="&#x122;" horiz-adv-x="797" 
d="M602 290h-173.001v106h297v-269c-34.667 -45.333 -78 -79.833 -130 -103.5s-108 -35.5 -168 -35.5c-108 0 -197.333 33.667 -268 101s-106 154.333 -106 261c0 102.667 36.333 188.667 109 258s161 104 265 104c113.333 0 208.333 -44 285 -132l-87 -74
c-56.667 64.667 -122.667 97 -198 97c-70 0 -128 -24.167 -174 -72.5s-69 -108.5 -69 -180.5c0 -76 22.333 -137.167 67 -183.5s103.334 -69.5 176.001 -69.5c67.333 0 125.333 22.667 174 68v125zM407.999 -242h-94l36 185h110z" />
    <glyph glyph-name="gcommaaccent" unicode="&#x123;" horiz-adv-x="620" 
d="M562 515l0.000976562 -488.001c0 -53.333 -10.333 -98.666 -31 -135.999c-42.667 -78 -119.334 -117 -230.001 -117c-88 0 -165.667 23.333 -233 70l45 100c26 -20 56 -35.667 90 -47s65.667 -17 95 -17c42 0 76.167 11.167 102.5 33.5s39.5 55.833 39.5 100.5v58
c-17.333 -24 -40.333 -42 -69 -54s-58 -18 -88 -18c-70 0 -128.5 25.5 -175.5 76.5s-70.5 113.833 -70.5 188.5c0 72 23.5 133.667 70.5 185s106.5 77 178.5 77c29.333 0 58.5 -6 87.5 -18s52.833 -29.667 71.5 -53l6 59h111zM440.001 184.999v171.002
c-34 43.333 -77.667 65 -131 65c-47.333 0 -84 -15.833 -110 -47.5s-39 -68.834 -39 -111.501s13.5 -79.334 40.5 -110.001s62.167 -46 105.5 -46c26.667 0 52.167 6.66699 76.5 20s43.5 33 57.5 59zM297.001 760.001h96l-36 -186h-112z" />
    <glyph glyph-name="Hcircumflex" unicode="&#x124;" horiz-adv-x="745" 
d="M660 0h-124v307h-327v-307h-124v700h124v-287h327v287h124v-700zM308 928h132l110 -138l-70 -53l-108 115l-107 -115l-71 53z" />
    <glyph glyph-name="hcircumflex" unicode="&#x125;" horiz-adv-x="613" 
d="M196 750v-305c40 54.667 93 82 159 82c60 0 107.333 -22 142 -66c30.667 -40.667 46 -105 46 -193v-268h-121v259c0 59.333 -6.66699 100.333 -20 123c-14.667 26 -40.667 39 -78 39c-24 0 -47.5 -7.16699 -70.5 -21.5s-42.167 -33.5 -57.5 -57.5v-342h-121v750h121z
M70 942h132l110 -138l-70 -53l-108 115l-107 -115l-71 53z" />
    <glyph glyph-name="Hbar" unicode="&#x126;" horiz-adv-x="745" 
d="M660 0h-124v307h-327v-307h-124v507h-87v88h87v105h124v-105h327v105h124v-105h87v-88h-87v-507zM209 414h327v93h-327v-93z" />
    <glyph glyph-name="hbar" unicode="&#x127;" horiz-adv-x="613" 
d="M75 750h121v-77h161v-87h-161v-141c40 54.667 93 82 159 82c60 0 107.333 -22 142 -66c30.667 -40.667 46 -105 46 -193v-268h-121v259c0 59.333 -6.66699 100.333 -20 123c-14.667 26 -40.667 39 -78 39c-24 0 -47.5 -7.16699 -70.5 -21.5s-42.167 -33.5 -57.5 -57.5
v-342h-121v586h-70v87h70v77z" />
    <glyph glyph-name="Itilde" unicode="&#x128;" horiz-adv-x="294" 
d="M209 0h-124v700h124v-700zM251 877l74.999 9.00098c3.33301 -11.333 5 -22.333 5 -33c0 -30.667 -10 -55.167 -30 -73.5s-46.333 -27.5 -79 -27.5c-24.667 0 -52.834 9.33301 -84.501 28s-52.167 28 -61.5 28c-8 0 -14.833 -2.33301 -20.5 -7s-8.5 -11 -8.5 -19
c0 -4 0.333008 -6.66699 1 -8l-74 -8c-3.33301 11.333 -5 22.666 -5 33.999c0 29.333 9.83301 53.333 29.5 72s45.834 28 78.501 28c24.667 0 52.834 -9.5 84.501 -28.5s52.167 -28.5 61.5 -28.5c18 0 27.667 8.66699 29 26c0 4 -0.333008 6.66699 -1 8z" />
    <glyph glyph-name="itilde" unicode="&#x129;" horiz-adv-x="271" 
d="M196 0h-121v515h121v-515zM33 604l-74 -8c-3.33301 11.333 -5 22 -5 32c0 29.333 10 53.166 30 71.499s46.333 27.5 79 27.5c24.667 0 52.834 -9.33301 84.501 -28s52.167 -28 61.5 -28c18 0 27.667 8.66699 29 26c0 4 -0.333008 6.66699 -1 8l74 8
c3.33301 -11.333 5 -22 5 -32c0 -29.333 -10 -53.166 -30 -71.499s-46.333 -27.5 -79 -27.5c-24.667 0 -52.834 9.33301 -84.501 28s-52.167 28 -61.5 28c-18 0 -27.667 -8.66699 -29 -26c0 -4 0.333008 -6.66699 1 -8z" />
    <glyph glyph-name="Imacron" unicode="&#x12a;" horiz-adv-x="294" 
d="M209 0h-124v700h124v-700zM322 773h-350v85h350v-85z" />
    <glyph glyph-name="imacron" unicode="&#x12b;" horiz-adv-x="271" 
d="M196 0h-121v515h121v-515zM298 609h-324v86h324v-86z" />
    <glyph glyph-name="Ibreve" unicode="&#x12c;" horiz-adv-x="294" 
d="M209 0h-124v700h124v-700zM303 914l-0.00195312 -9c0 -43.333 -15.167 -80 -45.5 -110s-67.166 -45 -110.499 -45s-80.166 15 -110.499 45s-45.5 66.667 -45.5 110v9h89c-0.666992 -2.66699 -1 -6 -1 -10c0 -20.667 6.33301 -38 19 -52s29 -21 49 -21
s36.833 7.16699 50.5 21.5s20.5 31.5 20.5 51.5c0 4 -0.333008 7.33301 -1 10h86z" />
    <glyph glyph-name="ibreve" unicode="&#x12d;" horiz-adv-x="271" 
d="M196 0h-121v515h121v-515zM292 749l-0.00195312 -17c0 -43.333 -15.167 -80 -45.5 -110s-67.166 -45 -110.499 -45s-80.166 15 -110.499 45s-45.5 66.667 -45.5 110v17h88c-0.666992 -2.66699 -1 -8.66699 -1 -18c0 -20 6.5 -37.167 19.5 -51.5s29.5 -21.5 49.5 -21.5
s36.833 7.16699 50.5 21.5s20.5 31.5 20.5 51.5c0 9.33301 -0.333008 15.333 -1 18h86z" />
    <glyph glyph-name="Iogonek" unicode="&#x12e;" horiz-adv-x="294" 
d="M85 4l-0.000976562 696h124v-700c-34 -8.66699 -60.167 -22 -78.5 -40s-27.5 -38 -27.5 -60c0 -27.333 15.333 -41 46 -41c15.333 0 31 4.33301 47 13l32 -67c-28 -20 -62 -30 -102 -30c-34.667 0 -64.167 9.5 -88.5 28.5s-36.5 44.167 -36.5 75.5
c0 26 7.33301 50.167 22 72.5s35.334 39.833 62.001 52.5z" />
    <glyph glyph-name="iogonek" unicode="&#x12f;" horiz-adv-x="271" 
d="M196 599h-121v113h121v-113zM75 4l-0.000976562 511h121v-515c-33.333 -8.66699 -58.833 -22 -76.5 -40s-26.5 -38 -26.5 -60c0 -27.333 15.667 -41 47 -41c14.667 0 30 4.33301 46 13l32 -67c-26.667 -20 -60.667 -30 -102 -30c-34.667 0 -64.167 9.5 -88.5 28.5
s-36.5 44.167 -36.5 75.5c0 26 7.33301 50.167 22 72.5s35.334 39.833 62.001 52.5z" />
    <glyph glyph-name="Idotaccent" unicode="&#x130;" horiz-adv-x="294" 
d="M211 763h-128v116h128v-116zM209 0h-124v700h124v-700z" />
    <glyph glyph-name="dotlessi" unicode="&#x131;" horiz-adv-x="271" 
d="M196 0h-121v515h121v-515z" />
    <glyph glyph-name="IJ" unicode="&#x132;" horiz-adv-x="672" 
d="M209 0h-124v700h124v-700zM587 700l-0.000976562 -517c0 -65.333 -13 -113.333 -39 -144c-28 -34 -73.667 -51 -137 -51c-41.333 0 -80.666 9.33301 -117.999 28l36 98c22.667 -11.333 45 -17 67 -17c26.667 0 45 7.33301 55 22c8 12.667 12 39 12 79v502h124z" />
    <glyph glyph-name="ij" unicode="&#x133;" horiz-adv-x="549" 
d="M196 0h-121v515h121v-515zM196 599h-121v113h121v-113zM474 599h-121v113h121v-113zM474 515l-0.000976562 -555c0 -48 -8.33301 -86.333 -25 -115c-28 -46.667 -75.333 -70 -142 -70c-39.333 0 -74.666 7.33301 -105.999 22l33 96
c18.667 -8.66699 38.334 -13 59.001 -13c25.333 0 41.666 7.83301 48.999 23.5s11 39.167 11 70.5v541h121z" />
    <glyph glyph-name="Jcircumflex" unicode="&#x134;" horiz-adv-x="339" 
d="M262 700l-0.000976562 -517c0 -65.333 -13 -113.333 -39 -144c-28 -34 -73.667 -51 -137 -51c-41.333 0 -80.666 9.33301 -117.999 28l36 98c22.667 -11.333 45 -17 67 -17c26.667 0 45 7.33301 55 22c8 12.667 12 39 12 79v502h124zM135.999 928h132l110 -138l-70 -53
l-108 115l-107 -115l-71 53z" />
    <glyph glyph-name="jcircumflex" unicode="&#x135;" horiz-adv-x="278" 
d="M203 515l-0.000976562 -555c0 -48 -8.33301 -86.333 -25 -115c-28 -46.667 -75.333 -70 -142 -70c-39.333 0 -74.666 7.33301 -105.999 22l33 96c18.667 -8.66699 38.334 -13 59.001 -13c25.333 0 41.666 7.83301 48.999 23.5s11 39.167 11 70.5v541h121zM82.999 786h121
l106 -163l-67 -43l-101 131l-99 -131l-69 43z" />
    <glyph glyph-name="Kcommaaccent" unicode="&#x136;" horiz-adv-x="632" 
d="M619 700l-236 -280l244 -420h-143l-185 321l-90 -108v-213h-124v700h124v-316l259 316h151zM327 -242h-94l36 185h110z" />
    <glyph glyph-name="kcommaaccent" unicode="&#x137;" horiz-adv-x="538" 
d="M537 0h-148l-130 207l-63 -73v-134h-121v750h121v-463l2 -1l183 229h141l-182 -213zM276 -242h-94l36 185h110z" />
    <glyph glyph-name="kgreenlandic" unicode="&#x138;" horiz-adv-x="538" 
d="M75 515h121v-228l2 -1l183 229h141l-182 -213l197 -302h-148l-130 207l-63 -73v-134h-121v515z" />
    <glyph glyph-name="Lacute" unicode="&#x139;" horiz-adv-x="507" 
d="M503 0h-418v700h124v-594h294v-106zM338 863l-179 -127l-55 69l170 142z" />
    <glyph glyph-name="lacute" unicode="&#x13a;" horiz-adv-x="271" 
d="M196 750v-750h-121v750h121zM296 907l-179 -127l-55 69l170 142z" />
    <glyph glyph-name="Lcommaaccent" unicode="&#x13b;" horiz-adv-x="507" 
d="M503 0h-418v700h124v-594h294v-106zM306 -242h-94l36 185h110z" />
    <glyph glyph-name="lcommaaccent" unicode="&#x13c;" horiz-adv-x="271" 
d="M196 750v-750h-121v750h121zM134 -242h-94l36 185h110z" />
    <glyph glyph-name="Lcaron" unicode="&#x13d;" horiz-adv-x="507" 
d="M503 0h-418v700h124v-594h294v-106zM394 490h-101l42 210h114z" />
    <glyph glyph-name="lcaron" unicode="&#x13e;" horiz-adv-x="303" 
d="M196 750v-750h-121v750h121zM327 540h-101l42 210h114z" />
    <glyph glyph-name="Ldot" unicode="&#x13f;" horiz-adv-x="514" 
d="M503 0h-418v700h124v-594h294v-106zM490 313h-128v116h128v-116z" />
    <glyph glyph-name="ldot" unicode="&#x140;" horiz-adv-x="347" 
d="M196 750v-750h-121v750h121zM373 315h-128v116h128v-116z" />
    <glyph glyph-name="Lslash" unicode="&#x141;" horiz-adv-x="507" 
d="M503 0h-418v251l-87 -56v116l87 56v333h124v-263l144 94v-116l-144 -94v-215h294v-106z" />
    <glyph glyph-name="lslash" unicode="&#x142;" horiz-adv-x="271" 
d="M196 750v-272l69 46v-118l-69 -45v-361h-121v295l-67 -43v116l67 43v339h121z" />
    <glyph glyph-name="Nacute" unicode="&#x143;" horiz-adv-x="751" 
d="M666 0h-111l-346 473v-473h-124v700h109l348 -474v474h124v-700zM539 863l-179 -127l-55 69l170 142z" />
    <glyph glyph-name="nacute" unicode="&#x144;" horiz-adv-x="613" 
d="M75 515h109.999l6 -76c40.667 58.667 95.334 88 164.001 88c60 0 107.333 -22 142 -66c30.667 -40.667 46 -105 46 -193v-268h-121v259c0 59.333 -6.66699 100.333 -20 123c-14.667 26 -40.667 39 -78 39c-24 0 -47.5 -7.16699 -70.5 -21.5s-42.167 -33.5 -57.5 -57.5
v-342h-121v515zM473.999 740l-141 -167l-71 54l129 178z" />
    <glyph glyph-name="Ncommaaccent" unicode="&#x145;" horiz-adv-x="751" 
d="M666 0h-111l-346 473v-473h-124v700h109l348 -474v474h124v-700zM367 -242h-94l36 185h110z" />
    <glyph glyph-name="ncommaaccent" unicode="&#x146;" horiz-adv-x="613" 
d="M75 515h109.999l6 -76c40.667 58.667 95.334 88 164.001 88c60 0 107.333 -22 142 -66c30.667 -40.667 46 -105 46 -193v-268h-121v259c0 59.333 -6.66699 100.333 -20 123c-14.667 26 -40.667 39 -78 39c-24 0 -47.5 -7.16699 -70.5 -21.5s-42.167 -33.5 -57.5 -57.5
v-342h-121v515zM302.999 -242h-94l36 185h110z" />
    <glyph glyph-name="Ncaron" unicode="&#x147;" horiz-adv-x="751" 
d="M666 0h-111l-346 473v-473h-124v700h109l348 -474v474h124v-700zM447 748h-132l-110 138l71 53l108 -115l107 115l70 -53z" />
    <glyph glyph-name="ncaron" unicode="&#x148;" horiz-adv-x="613" 
d="M75 515h109.999l6 -76c40.667 58.667 95.334 88 164.001 88c60 0 107.333 -22 142 -66c30.667 -40.667 46 -105 46 -193v-268h-121v259c0 59.333 -6.66699 100.333 -20 123c-14.667 26 -40.667 39 -78 39c-24 0 -47.5 -7.16699 -70.5 -21.5s-42.167 -33.5 -57.5 -57.5
v-342h-121v515zM379.999 582h-121l-106 163l69 43l101 -131l98 131l68 -43z" />
    <glyph glyph-name="napostrophe" unicode="&#x149;" horiz-adv-x="634" 
d="M85 528h-107l48 239h122zM111 515h109.999l6 -76c40.667 58.667 95.334 88 164.001 88c60 0 107.333 -22 142 -66c30.667 -40.667 46 -105 46 -193v-268h-121v259c0 59.333 -6.66699 100.333 -20 123c-14.667 26 -40.667 39 -78 39c-24 0 -47.5 -7.16699 -70.5 -21.5
s-42.167 -33.5 -57.5 -57.5v-342h-121v515z" />
    <glyph glyph-name="Eng" unicode="&#x14a;" horiz-adv-x="751" 
d="M666 700l-0.000976562 -729c0 -65.333 -13 -113.333 -39 -144c-28 -34 -73.667 -51 -137 -51c-41.333 0 -80.666 9.33301 -117.999 28l36 98c22.667 -11.333 45 -17 67 -17c26.667 0 45 7.33301 55 22c8 12.667 12 39 12 79v32l-333 455v-473h-124v700h109l348 -474v474
h124z" />
    <glyph glyph-name="eng" unicode="&#x14b;" horiz-adv-x="613" 
d="M75 515h109.998l6 -76c40.667 58.667 95.334 88 164.001 88c60 0 107.333 -22 142 -66c30.667 -40.667 46 -105 46 -193v-308c0 -48 -8.33301 -86.333 -25 -115c-28 -46.667 -75.333 -70 -142 -70c-39.333 0 -74.666 7.33301 -105.999 22l33 96
c18.667 -8.66699 38.334 -13 59.001 -13c25.333 0 41.666 7.83301 48.999 23.5s11 39.167 11 70.5v285c0 59.333 -6.66699 100.333 -20 123c-14.667 26 -40.667 39 -78 39c-24 0 -47.5 -7.16699 -70.5 -21.5s-42.167 -33.5 -57.5 -57.5v-342h-121v515z" />
    <glyph glyph-name="Omacron" unicode="&#x14c;" horiz-adv-x="835" 
d="M650 350c0 71.333 -22 131.333 -66 180s-99.667 73 -167 73c-66.667 0 -122 -24.333 -166 -73s-66 -108.667 -66 -180s22 -131.333 66 -180s99.333 -73 166 -73c67.333 0 123 24.333 167 73s66 108.667 66 180zM781 350c0 -100.667 -35 -186.167 -105 -256.5
s-156.333 -105.5 -259 -105.5s-188.834 35.167 -258.501 105.5s-104.5 155.833 -104.5 256.5s34.833 186.167 104.5 256.5s155.834 105.5 258.501 105.5s189 -35.167 259 -105.5s105 -155.833 105 -256.5zM592 773h-350v85h350v-85z" />
    <glyph glyph-name="omacron" unicode="&#x14d;" horiz-adv-x="608" 
d="M304 527c76.667 0 140.334 -26 191.001 -78s76 -115.667 76 -191c0 -76 -25.333 -140 -76 -192s-114.334 -78 -191.001 -78s-140.334 26 -191.001 78s-76 116 -76 192c0 75.333 25.333 139 76 191s114.334 78 191.001 78zM448 258c0 45.333 -13.667 83.833 -41 115.5
s-61.666 47.5 -102.999 47.5s-75.666 -15.833 -102.999 -47.5s-41 -70.167 -41 -115.5c0 -46 13.667 -84.833 41 -116.5s61.666 -47.5 102.999 -47.5s75.666 15.833 102.999 47.5s41 70.5 41 116.5zM466 609h-324v86h324v-86z" />
    <glyph glyph-name="Obreve" unicode="&#x14e;" horiz-adv-x="835" 
d="M650 350c0 71.333 -22 131.333 -66 180s-99.667 73 -167 73c-66.667 0 -122 -24.333 -166 -73s-66 -108.667 -66 -180s22 -131.333 66 -180s99.333 -73 166 -73c67.333 0 123 24.333 167 73s66 108.667 66 180zM781 350c0 -100.667 -35 -186.167 -105 -256.5
s-156.333 -105.5 -259 -105.5s-188.834 35.167 -258.501 105.5s-104.5 155.833 -104.5 256.5s34.833 186.167 104.5 256.5s155.834 105.5 258.501 105.5s189 -35.167 259 -105.5s105 -155.833 105 -256.5zM573 914l-0.00195312 -9c0 -43.333 -15.167 -80 -45.5 -110
s-67.166 -45 -110.499 -45s-80.166 15 -110.499 45s-45.5 66.667 -45.5 110v9h89c-0.666992 -2.66699 -1 -6 -1 -10c0 -20.667 6.33301 -38 19 -52s29 -21 49 -21s36.833 7.16699 50.5 21.5s20.5 31.5 20.5 51.5c0 4 -0.333008 7.33301 -1 10h86z" />
    <glyph glyph-name="obreve" unicode="&#x14f;" horiz-adv-x="608" 
d="M304 527c76.667 0 140.334 -26 191.001 -78s76 -115.667 76 -191c0 -76 -25.333 -140 -76 -192s-114.334 -78 -191.001 -78s-140.334 26 -191.001 78s-76 116 -76 192c0 75.333 25.333 139 76 191s114.334 78 191.001 78zM448 258c0 45.333 -13.667 83.833 -41 115.5
s-61.666 47.5 -102.999 47.5s-75.666 -15.833 -102.999 -47.5s-41 -70.167 -41 -115.5c0 -46 13.667 -84.833 41 -116.5s61.666 -47.5 102.999 -47.5s75.666 15.833 102.999 47.5s41 70.5 41 116.5zM460 749l-0.00195312 -17c0 -43.333 -15.167 -80 -45.5 -110
s-67.166 -45 -110.499 -45s-80.166 15 -110.499 45s-45.5 66.667 -45.5 110v17h88c-0.666992 -2.66699 -1 -8.66699 -1 -18c0 -20 6.5 -37.167 19.5 -51.5s29.5 -21.5 49.5 -21.5s36.833 7.16699 50.5 21.5s20.5 31.5 20.5 51.5c0 9.33301 -0.333008 15.333 -1 18h86z" />
    <glyph glyph-name="Ohungarumlaut" unicode="&#x150;" horiz-adv-x="835" 
d="M650 350c0 71.333 -22 131.333 -66 180s-99.667 73 -167 73c-66.667 0 -122 -24.333 -166 -73s-66 -108.667 -66 -180s22 -131.333 66 -180s99.333 -73 166 -73c67.333 0 123 24.333 167 73s66 108.667 66 180zM781 350c0 -100.667 -35 -186.167 -105 -256.5
s-156.333 -105.5 -259 -105.5s-188.834 35.167 -258.501 105.5s-104.5 155.833 -104.5 256.5s34.833 186.167 104.5 256.5s155.834 105.5 258.501 105.5s189 -35.167 259 -105.5s105 -155.833 105 -256.5zM698 859l-173 -123l-55 69l164 138zM469 863l-179 -127l-54 67
l170 142z" />
    <glyph glyph-name="ohungarumlaut" unicode="&#x151;" horiz-adv-x="608" 
d="M304 527c76.667 0 140.334 -26 191.001 -78s76 -115.667 76 -191c0 -76 -25.333 -140 -76 -192s-114.334 -78 -191.001 -78s-140.334 26 -191.001 78s-76 116 -76 192c0 75.333 25.333 139 76 191s114.334 78 191.001 78zM448 258c0 45.333 -13.667 83.833 -41 115.5
s-61.666 47.5 -102.999 47.5s-75.666 -15.833 -102.999 -47.5s-41 -70.167 -41 -115.5c0 -46 13.667 -84.833 41 -116.5s61.666 -47.5 102.999 -47.5s75.666 15.833 102.999 47.5s41 70.5 41 116.5zM563 738l-139 -165l-71 54l127 176zM381 747l-141 -167l-71 54l129 178z
" />
    <glyph glyph-name="OE" unicode="&#x152;" horiz-adv-x="1059" 
d="M1001 0h-437v25c-46 -24.667 -95 -37 -147 -37c-102.667 0 -188.834 35.167 -258.501 105.5s-104.5 155.833 -104.5 256.5s34.833 186.167 104.5 256.5s155.834 105.5 258.501 105.5c50.667 0 99.667 -12.333 147 -37v25h437v-106h-313v-180h313v-107h-313v-201h313v-106
zM417 97c56.667 0 105.667 16.667 147 50v405c-41.333 34 -90.333 51 -147 51c-66.667 0 -122 -24.333 -166 -73s-66 -108.667 -66 -180s22 -131.333 66 -180s99.333 -73 166 -73z" />
    <glyph glyph-name="oe" unicode="&#x153;" horiz-adv-x="983" 
d="M941 227h-374.999c4 -40 18.833 -73.333 44.5 -100s58.834 -40 99.501 -40c63.333 0 110.666 26.667 141.999 80l82 -55c-28.667 -42.667 -61.167 -74 -97.5 -94s-80.833 -30 -133.5 -30c-86.667 0 -153.334 31.667 -200.001 95
c-49.333 -63.333 -115.666 -95 -198.999 -95c-76.667 0 -140.334 26 -191.001 78s-76 116 -76 192s25.333 139.833 76 191.5s114.334 77.5 191.001 77.5c86 0 153.667 -33 203 -99c49.333 66 114.666 99 195.999 99c70 0 128 -22.5 174 -67.5s69 -101.833 69 -170.5
c0 -20 -1.66699 -40.667 -5 -62zM448.001 258c0 45.333 -13.667 83.833 -41 115.5s-61.666 47.5 -102.999 47.5c-42 0 -76.5 -15.667 -103.5 -47s-40.5 -70 -40.5 -116s13.5 -84.833 40.5 -116.5s61.5 -47.5 103.5 -47.5c41.333 0 75.666 16 102.999 48s41 70.667 41 116z
M706.001 430c-35.333 0 -64.167 -10.5 -86.5 -31.5s-37.833 -49.167 -46.5 -84.5h249c-1.33301 33.333 -13 61 -35 83s-49 33 -81 33z" />
    <glyph glyph-name="Racute" unicode="&#x154;" horiz-adv-x="625" 
d="M85 700l216 0.00390625c29.333 0 58 -3.83301 86 -11.5s54.5 -19.334 79.5 -35.001s45.167 -37.334 60.5 -65.001s23 -59.167 23 -94.5c0 -52.667 -15.167 -95.334 -45.5 -128.001s-68.5 -55.334 -114.5 -68.001l217 -298h-154l-200 286h-44v-286h-124v700zM209 392.004
l68.999 0.000976562c42.667 0 76.834 8.16699 102.501 24.5s38.5 41.166 38.5 74.499c0 30.667 -11.167 55.5 -33.5 74.5s-51.5 28.5 -87.5 28.5h-89v-202zM467.999 863.005l-179 -127l-55 69l170 142z" />
    <glyph glyph-name="racute" unicode="&#x155;" horiz-adv-x="367" 
d="M186 515l6 -73c35.333 56.667 77 85 125 85c22 0 42.667 -3 62 -9l-27 -113c-14 7.33301 -30.333 11 -49 11c-44.667 0 -80 -23 -106 -69v-347h-122v515h111zM368 740l-141 -167l-71 54l129 178z" />
    <glyph glyph-name="Rcommaaccent" unicode="&#x156;" horiz-adv-x="625" 
d="M85 700l216 0.00390625c29.333 0 58 -3.83301 86 -11.5s54.5 -19.334 79.5 -35.001s45.167 -37.334 60.5 -65.001s23 -59.167 23 -94.5c0 -52.667 -15.167 -95.334 -45.5 -128.001s-68.5 -55.334 -114.5 -68.001l217 -298h-154l-200 286h-44v-286h-124v700zM209 392.004
l68.999 0.000976562c42.667 0 76.834 8.16699 102.501 24.5s38.5 41.166 38.5 74.499c0 30.667 -11.167 55.5 -33.5 74.5s-51.5 28.5 -87.5 28.5h-89v-202zM320.999 -241.995h-94l36 185h110z" />
    <glyph glyph-name="rcommaaccent" unicode="&#x157;" horiz-adv-x="367" 
d="M186 515l6 -73c35.333 56.667 77 85 125 85c22 0 42.667 -3 62 -9l-27 -113c-14 7.33301 -30.333 11 -49 11c-44.667 0 -80 -23 -106 -69v-347h-122v515h111zM134 -242h-94l36 185h110z" />
    <glyph glyph-name="Rcaron" unicode="&#x158;" horiz-adv-x="625" 
d="M85 700l216 0.00390625c29.333 0 58 -3.83301 86 -11.5s54.5 -19.334 79.5 -35.001s45.167 -37.334 60.5 -65.001s23 -59.167 23 -94.5c0 -52.667 -15.167 -95.334 -45.5 -128.001s-68.5 -55.334 -114.5 -68.001l217 -298h-154l-200 286h-44v-286h-124v700zM209 392.004
l68.999 0.000976562c42.667 0 76.834 8.16699 102.501 24.5s38.5 41.166 38.5 74.499c0 30.667 -11.167 55.5 -33.5 74.5s-51.5 28.5 -87.5 28.5h-89v-202zM356.999 748.005h-132l-110 138l71 53l108 -115l107 115l70 -53z" />
    <glyph glyph-name="rcaron" unicode="&#x159;" horiz-adv-x="367" 
d="M186 515l6 -73c35.333 56.667 77 85 125 85c22 0 42.667 -3 62 -9l-27 -113c-14 7.33301 -30.333 11 -49 11c-44.667 0 -80 -23 -106 -69v-347h-122v515h111zM284 582h-121l-106 163l69 43l101 -131l98 131l68 -43z" />
    <glyph glyph-name="Sacute" unicode="&#x15a;" horiz-adv-x="617" 
d="M464 545c-45.333 40 -94.0039 59.998 -146.004 59.998c-30 0 -54.833 -7.33301 -74.5 -22s-29.5 -34.667 -29.5 -60c0 -10.667 2.83301 -20.5 8.5 -29.5s11.834 -16.333 18.501 -22s17 -11.834 31 -18.501s24.5 -11.334 31.5 -14.001s18.833 -6.66699 35.5 -12
c32.667 -11.333 59.167 -21.666 79.5 -30.999s42.666 -22.5 66.999 -39.5s42.5 -38.167 54.5 -63.5s18 -54.666 18 -87.999c0 -48.667 -13.667 -90 -41 -124s-59.666 -58 -96.999 -72s-76.666 -21 -117.999 -21c-99.333 0 -186.666 37.333 -261.999 112l84 81
c32 -30.667 61.167 -52.667 87.5 -66s56.833 -20 91.5 -20s64 8.66699 88 26s36 43 36 77c0 12.667 -3 24.5 -9 35.5s-12.667 20 -20 27s-18.666 14.333 -33.999 22s-27.833 13.5 -37.5 17.5s-24.167 9.33301 -43.5 16c-28 10 -51.667 19.833 -71 29.5
s-39.166 22.167 -59.499 37.5s-35.833 34.333 -46.5 57s-16 48.334 -16 77.001c0 62.667 21.333 110.834 64 144.501s95 50.5 157 50.5c81.333 0 156.666 -26 225.999 -78zM488.996 862.998l-179 -127l-55 69l170 142z" />
    <glyph glyph-name="sacute" unicode="&#x15b;" horiz-adv-x="468" 
d="M412 464l-68 -73.999c-30 26.667 -64 40 -102 40c-18 0 -32.667 -4.5 -44 -13.5s-17 -21.167 -17 -36.5c0 -10.667 4.83301 -20.834 14.5 -30.501s19.5 -17 29.5 -22s25 -11.5 45 -19.5c22 -8.66699 39.5 -16.334 52.5 -23.001s28.167 -16.167 45.5 -28.5
s30.333 -27.166 39 -44.499s13 -37.333 13 -60c0 -54 -18.667 -94.833 -56 -122.5s-83.333 -41.5 -138 -41.5c-78.667 0 -143.667 28.333 -195 85l74 70c38.667 -38.667 78 -58 118 -58c20.667 0 38.667 5 54 15s23 24.667 23 44c0 11.333 -5.5 22 -16.5 32
s-21.667 17.5 -32 22.5s-26.166 11.833 -47.499 20.5c-20 8 -36.167 15.333 -48.5 22s-26.5 16 -42.5 28s-28 26.5 -36 43.5s-12 36.5 -12 58.5c0 50 17.167 88.5 51.5 115.5s76.166 40.5 125.499 40.5c68 0 124.667 -21 170 -63zM414 740.001l-141 -167l-71 54l129 178z
" />
    <glyph glyph-name="Scircumflex" unicode="&#x15c;" horiz-adv-x="617" 
d="M464 545c-45.333 40 -94.0039 59.998 -146.004 59.998c-30 0 -54.833 -7.33301 -74.5 -22s-29.5 -34.667 -29.5 -60c0 -10.667 2.83301 -20.5 8.5 -29.5s11.834 -16.333 18.501 -22s17 -11.834 31 -18.501s24.5 -11.334 31.5 -14.001s18.833 -6.66699 35.5 -12
c32.667 -11.333 59.167 -21.666 79.5 -30.999s42.666 -22.5 66.999 -39.5s42.5 -38.167 54.5 -63.5s18 -54.666 18 -87.999c0 -48.667 -13.667 -90 -41 -124s-59.666 -58 -96.999 -72s-76.666 -21 -117.999 -21c-99.333 0 -186.666 37.333 -261.999 112l84 81
c32 -30.667 61.167 -52.667 87.5 -66s56.833 -20 91.5 -20s64 8.66699 88 26s36 43 36 77c0 12.667 -3 24.5 -9 35.5s-12.667 20 -20 27s-18.666 14.333 -33.999 22s-27.833 13.5 -37.5 17.5s-24.167 9.33301 -43.5 16c-28 10 -51.667 19.833 -71 29.5
s-39.166 22.167 -59.499 37.5s-35.833 34.333 -46.5 57s-16 48.334 -16 77.001c0 62.667 21.333 110.834 64 144.501s95 50.5 157 50.5c81.333 0 156.666 -26 225.999 -78zM253.996 927.998h132l110 -138l-70 -53l-108 115l-107 -115l-71 53z" />
    <glyph glyph-name="scircumflex" unicode="&#x15d;" horiz-adv-x="468" 
d="M412 464l-68 -73.999c-30 26.667 -64 40 -102 40c-18 0 -32.667 -4.5 -44 -13.5s-17 -21.167 -17 -36.5c0 -10.667 4.83301 -20.834 14.5 -30.501s19.5 -17 29.5 -22s25 -11.5 45 -19.5c22 -8.66699 39.5 -16.334 52.5 -23.001s28.167 -16.167 45.5 -28.5
s30.333 -27.166 39 -44.499s13 -37.333 13 -60c0 -54 -18.667 -94.833 -56 -122.5s-83.333 -41.5 -138 -41.5c-78.667 0 -143.667 28.333 -195 85l74 70c38.667 -38.667 78 -58 118 -58c20.667 0 38.667 5 54 15s23 24.667 23 44c0 11.333 -5.5 22 -16.5 32
s-21.667 17.5 -32 22.5s-26.166 11.833 -47.499 20.5c-20 8 -36.167 15.333 -48.5 22s-26.5 16 -42.5 28s-28 26.5 -36 43.5s-12 36.5 -12 58.5c0 50 17.167 88.5 51.5 115.5s76.166 40.5 125.499 40.5c68 0 124.667 -21 170 -63zM183 786.001h121l106 -163l-67 -43
l-101 131l-99 -131l-69 43z" />
    <glyph glyph-name="Scedilla" unicode="&#x15e;" horiz-adv-x="609" 
d="M464 545c-45.333 40 -94.001 60 -146.001 60c-30 0 -54.833 -7.33301 -74.5 -22s-29.5 -34.667 -29.5 -60c0 -10.667 2.83301 -20.5 8.5 -29.5s11.834 -16.333 18.501 -22s17 -11.834 31 -18.501s24.5 -11.334 31.5 -14.001s18.833 -6.66699 35.5 -12
c25.333 -8.66699 46.333 -16.334 63 -23.001s36 -16.5 58 -29.5s39.333 -26.667 52 -41s23.667 -32.5 33 -54.5s14 -46.667 14 -74c0 -35.333 -7.33301 -67.166 -22 -95.499s-34.167 -50.833 -58.5 -67.5s-50.333 -29.5 -78 -38.5s-56.5 -14.167 -86.5 -15.5l-21 -50l1 -1
c14 10.667 30 16 48 16c25.333 0 46.666 -9.5 63.999 -28.5s26 -42.167 26 -69.5c0 -28 -10.833 -52.833 -32.5 -74.5s-48.167 -32.5 -79.5 -32.5c-49.333 0 -86 22 -110 66l64 30c8 -21.333 22 -32 42 -32c11.333 0 20.833 4 28.5 12s11.5 17.333 11.5 28
c0 11.333 -3.66699 21.333 -11 30s-16.666 13 -27.999 13c-17.333 0 -30.333 -7 -39 -21l-69 35l38 83c-75.333 9.33301 -144.333 45.333 -207 108l84 81c32 -30.667 61.167 -52.667 87.5 -66s56.833 -20 91.5 -20s64 8.66699 88 26s36 43 36 77c0 12.667 -3 24.5 -9 35.5
s-12.667 20 -20 27s-18.666 14.333 -33.999 22s-27.833 13.5 -37.5 17.5s-24.167 9.33301 -43.5 16c-28 10 -51.667 19.833 -71 29.5s-39.333 22.167 -60 37.5s-36.334 34.333 -47.001 57s-16 48.334 -16 77.001c0 62.667 21.333 110.834 64 144.501
s95.334 50.5 158.001 50.5c81.333 0 156.666 -26 225.999 -78z" />
    <glyph glyph-name="scedilla" unicode="&#x15f;" horiz-adv-x="468" 
d="M412 464l-68.001 -73.999c-30 26.667 -64 40 -102 40c-18 0 -32.667 -4.5 -44 -13.5s-17 -21.167 -17 -36.5c0 -10.667 4.83301 -20.834 14.5 -30.501s19.5 -17 29.5 -22s25 -11.5 45 -19.5c22 -8.66699 39.5 -16.334 52.5 -23.001s28.167 -16.167 45.5 -28.5
s30.333 -27.166 39 -44.499s13 -37.333 13 -60c0 -51.333 -17.333 -90.833 -52 -118.5s-77.667 -42.5 -129 -44.5l-19 -51l1 -1c14.667 10.667 30.334 16 47.001 16c24 0 45 -9.33301 63 -28s27 -42 27 -70s-10.833 -52.833 -32.5 -74.5s-48.167 -32.5 -79.5 -32.5
c-49.333 0 -86 22 -110 66l64 30c8 -21.333 22 -32 42 -32c11.333 0 20.833 4 28.5 12s11.5 17.333 11.5 28c0 12 -3.83301 22.167 -11.5 30.5s-17.167 12.5 -28.5 12.5c-18 0 -30.667 -7 -38 -21l-68 35l35 85c-56 10.667 -102.667 37 -140 79l74 70
c38.667 -38.667 78 -58 118 -58c20.667 0 38.667 5 54 15s23 24.667 23 44c0 11.333 -5.5 22 -16.5 32s-21.667 17.5 -32 22.5s-26.166 11.833 -47.499 20.5c-20 8 -36.167 15.333 -48.5 22s-26.5 16 -42.5 28s-28 26.5 -36 43.5s-12 36.5 -12 58.5
c0 50 17.167 88.5 51.5 115.5s76.166 40.5 125.499 40.5c68 0 124.667 -21 170 -63z" />
    <glyph glyph-name="Scaron" unicode="&#x160;" horiz-adv-x="617" 
d="M464 545c-45.333 40 -94.0039 59.998 -146.004 59.998c-30 0 -54.833 -7.33301 -74.5 -22s-29.5 -34.667 -29.5 -60c0 -10.667 2.83301 -20.5 8.5 -29.5s11.834 -16.333 18.501 -22s17 -11.834 31 -18.501s24.5 -11.334 31.5 -14.001s18.833 -6.66699 35.5 -12
c32.667 -11.333 59.167 -21.666 79.5 -30.999s42.666 -22.5 66.999 -39.5s42.5 -38.167 54.5 -63.5s18 -54.666 18 -87.999c0 -48.667 -13.667 -90 -41 -124s-59.666 -58 -96.999 -72s-76.666 -21 -117.999 -21c-99.333 0 -186.666 37.333 -261.999 112l84 81
c32 -30.667 61.167 -52.667 87.5 -66s56.833 -20 91.5 -20s64 8.66699 88 26s36 43 36 77c0 12.667 -3 24.5 -9 35.5s-12.667 20 -20 27s-18.666 14.333 -33.999 22s-27.833 13.5 -37.5 17.5s-24.167 9.33301 -43.5 16c-28 10 -51.667 19.833 -71 29.5
s-39.166 22.167 -59.499 37.5s-35.833 34.333 -46.5 57s-16 48.334 -16 77.001c0 62.667 21.333 110.834 64 144.501s95 50.5 157 50.5c81.333 0 156.666 -26 225.999 -78zM382.996 747.998h-132l-110 138l71 53l108 -115l107 115l70 -53z" />
    <glyph glyph-name="scaron" unicode="&#x161;" horiz-adv-x="468" 
d="M412 464l-68 -73.999c-30 26.667 -64 40 -102 40c-18 0 -32.667 -4.5 -44 -13.5s-17 -21.167 -17 -36.5c0 -10.667 4.83301 -20.834 14.5 -30.501s19.5 -17 29.5 -22s25 -11.5 45 -19.5c22 -8.66699 39.5 -16.334 52.5 -23.001s28.167 -16.167 45.5 -28.5
s30.333 -27.166 39 -44.499s13 -37.333 13 -60c0 -54 -18.667 -94.833 -56 -122.5s-83.333 -41.5 -138 -41.5c-78.667 0 -143.667 28.333 -195 85l74 70c38.667 -38.667 78 -58 118 -58c20.667 0 38.667 5 54 15s23 24.667 23 44c0 11.333 -5.5 22 -16.5 32
s-21.667 17.5 -32 22.5s-26.166 11.833 -47.499 20.5c-20 8 -36.167 15.333 -48.5 22s-26.5 16 -42.5 28s-28 26.5 -36 43.5s-12 36.5 -12 58.5c0 50 17.167 88.5 51.5 115.5s76.166 40.5 125.499 40.5c68 0 124.667 -21 170 -63zM306 582.001h-121l-106 163l69 43l101 -131
l98 131l68 -43z" />
    <glyph glyph-name="uni0162" unicode="&#x162;" horiz-adv-x="491" 
d="M477 594h-169.999v-594h-24l-24 -62l1 -1c14.667 10.667 30.334 16 47.001 16c24 0 45.167 -9.33301 63.5 -28s27.5 -42 27.5 -70s-10.833 -52.833 -32.5 -74.5s-48.167 -32.5 -79.5 -32.5c-49.333 0 -86.333 22 -111 66l64 30c8 -21.333 22.333 -32 43 -32
c11.333 0 20.666 4 27.999 12s11 17.333 11 28c0 12 -3.66699 22.167 -11 30.5s-17 12.5 -29 12.5c-16.667 0 -29.334 -7 -38.001 -21l-68 35l39 91h-31v594h-170v106h464v-106z" />
    <glyph glyph-name="uni0163" unicode="&#x163;" horiz-adv-x="362" 
d="M336 413l-135.999 -0.000976562v-213c0 -18 0.333008 -32.333 1 -43c4 -42 22.667 -63 56 -63c20.667 0 39.667 4.66699 57 14l36 -92c-32 -18 -69.333 -27 -112 -27c-1.33301 0 -3.33301 0.166992 -6 0.5s-4.66699 0.5 -6 0.5l-20 -52l1 -1
c14.667 10.667 30.334 16 47.001 16c24 0 45.167 -9.33301 63.5 -28s27.5 -42 27.5 -70s-10.833 -52.833 -32.5 -74.5s-48.167 -32.5 -79.5 -32.5c-48.667 0 -85.667 22 -111 66l64 30c8 -21.333 22.333 -32 43 -32c11.333 0 20.666 4 27.999 12s11 17.333 11 28
c0 12 -3.66699 22.167 -11 30.5s-17 12.5 -29 12.5c-16.667 0 -29.334 -7 -38.001 -21l-68 35l41 95c-35.333 16.667 -59.333 44.334 -72 83.001c-8.66699 23.333 -13 55 -13 95v231h-64v102h64l13 118h109v-118h136v-102z" />
    <glyph glyph-name="Tcaron" unicode="&#x164;" horiz-adv-x="491" 
d="M477 594h-170v-594h-124v594h-170v106h464v-106zM309 748h-132l-110 138l71 53l108 -115l107 115l70 -53z" />
    <glyph glyph-name="tcaron" unicode="&#x165;" horiz-adv-x="362" 
d="M336 413h-136.001v-213c0 -18 0.333008 -32.333 1 -43c4 -42 22.667 -63 56 -63c20.667 0 39.667 4.66699 57 14l36 -92c-32 -18 -69.333 -27 -112 -27c-37.333 0 -68.666 8.66699 -93.999 26s-43 41.333 -53 72c-8.66699 23.333 -13 55 -13 95v231h-64v102h64l13 118
h109v-118h136v-102zM346.999 572h-101l42 210h114z" />
    <glyph glyph-name="Tbar" unicode="&#x166;" horiz-adv-x="491" 
d="M477 594h-170v-184h106v-100h-106v-310h-124v310h-106v100h106v184h-170v106h464v-106z" />
    <glyph glyph-name="tbar" unicode="&#x167;" horiz-adv-x="340" 
d="M336 225h-136.001v-25c0 -18 0.333008 -32.333 1 -43c4 -42 22.667 -63 56 -63c20.667 0 39.667 4.66699 57 14l36 -92c-32 -18 -69.333 -27 -112 -27c-37.333 0 -68.666 8.66699 -93.999 26s-43 41.333 -53 72c-8.66699 23.333 -13 55 -13 95v43h-65v95h65v93h-64v102
h64l13 118h109v-118h136v-102h-136v-93h136v-95z" />
    <glyph glyph-name="Utilde" unicode="&#x168;" horiz-adv-x="719" 
d="M637 700v-371c0 -112.667 -22.5 -197.667 -67.5 -255s-115.833 -86 -212.5 -86c-183.333 0 -275 113.667 -275 341v371h124v-392c0 -69.333 13.5 -121.833 40.5 -157.5s64.5 -53.5 112.5 -53.5c48.667 0 86.5 17.833 113.5 53.5s40.5 88.167 40.5 157.5v392h124zM461 877
l74.999 9.00098c3.33301 -11.333 5 -22.333 5 -33c0 -30.667 -10 -55.167 -30 -73.5s-46.333 -27.5 -79 -27.5c-24.667 0 -52.834 9.33301 -84.501 28s-52.167 28 -61.5 28c-8 0 -14.833 -2.33301 -20.5 -7s-8.5 -11 -8.5 -19c0 -4 0.333008 -6.66699 1 -8l-74 -8
c-3.33301 11.333 -5 22.666 -5 33.999c0 29.333 9.83301 53.333 29.5 72s45.834 28 78.501 28c24.667 0 52.834 -9.5 84.501 -28.5s52.167 -28.5 61.5 -28.5c18 0 27.667 8.66699 29 26c0 4 -0.333008 6.66699 -1 8z" />
    <glyph glyph-name="utilde" unicode="&#x169;" horiz-adv-x="613" 
d="M538 0h-109.999l-6 76c-40.667 -58.667 -95.334 -88 -164.001 -88c-60 0 -107.333 22 -142 66c-30.667 40.667 -46 105 -46 193v268h121v-259c0 -59.333 6.66699 -100.333 20 -123c15.333 -26 41.333 -39 78 -39c24 0 47.5 7.16699 70.5 21.5s42.167 33.5 57.5 57.5v342
h121v-515zM213.001 604l-74 -8c-3.33301 11.333 -5 22 -5 32c0 29.333 10 53.166 30 71.499s46.333 27.5 79 27.5c24.667 0 52.834 -9.33301 84.501 -28s52.167 -28 61.5 -28c18 0 27.667 8.66699 29 26c0 4 -0.333008 6.66699 -1 8l74 8c3.33301 -11.333 5 -22 5 -32
c0 -29.333 -10 -53.166 -30 -71.499s-46.333 -27.5 -79 -27.5c-24.667 0 -52.834 9.33301 -84.501 28s-52.167 28 -61.5 28c-18 0 -27.667 -8.66699 -29 -26c0 -4 0.333008 -6.66699 1 -8z" />
    <glyph glyph-name="Umacron" unicode="&#x16a;" horiz-adv-x="719" 
d="M637 700v-371c0 -112.667 -22.5 -197.667 -67.5 -255s-115.833 -86 -212.5 -86c-183.333 0 -275 113.667 -275 341v371h124v-392c0 -69.333 13.5 -121.833 40.5 -157.5s64.5 -53.5 112.5 -53.5c48.667 0 86.5 17.833 113.5 53.5s40.5 88.167 40.5 157.5v392h124zM534 773
h-350v85h350v-85z" />
    <glyph glyph-name="umacron" unicode="&#x16b;" horiz-adv-x="613" 
d="M538 0h-109.999l-6 76c-40.667 -58.667 -95.334 -88 -164.001 -88c-60 0 -107.333 22 -142 66c-30.667 40.667 -46 105 -46 193v268h121v-259c0 -59.333 6.66699 -100.333 20 -123c15.333 -26 41.333 -39 78 -39c24 0 47.5 7.16699 70.5 21.5s42.167 33.5 57.5 57.5v342
h121v-515zM466.001 609h-324v86h324v-86z" />
    <glyph glyph-name="Ubreve" unicode="&#x16c;" horiz-adv-x="719" 
d="M637 700v-371c0 -112.667 -22.5 -197.667 -67.5 -255s-115.833 -86 -212.5 -86c-183.333 0 -275 113.667 -275 341v371h124v-392c0 -69.333 13.5 -121.833 40.5 -157.5s64.5 -53.5 112.5 -53.5c48.667 0 86.5 17.833 113.5 53.5s40.5 88.167 40.5 157.5v392h124zM516 914
l-0.00195312 -9c0 -43.333 -15.167 -80 -45.5 -110s-67.166 -45 -110.499 -45s-80.166 15 -110.499 45s-45.5 66.667 -45.5 110v9h89c-0.666992 -2.66699 -1 -6 -1 -10c0 -20.667 6.33301 -38 19 -52s29 -21 49 -21s36.833 7.16699 50.5 21.5s20.5 31.5 20.5 51.5
c0 4 -0.333008 7.33301 -1 10h86z" />
    <glyph glyph-name="ubreve" unicode="&#x16d;" horiz-adv-x="613" 
d="M538 0h-109.999l-6 76c-40.667 -58.667 -95.334 -88 -164.001 -88c-60 0 -107.333 22 -142 66c-30.667 40.667 -46 105 -46 193v268h121v-259c0 -59.333 6.66699 -100.333 20 -123c15.333 -26 41.333 -39 78 -39c24 0 47.5 7.16699 70.5 21.5s42.167 33.5 57.5 57.5v342
h121v-515zM463.001 749l-0.00195312 -17c0 -43.333 -15.167 -80 -45.5 -110s-67.166 -45 -110.499 -45s-80.166 15 -110.499 45s-45.5 66.667 -45.5 110v17h88c-0.666992 -2.66699 -1 -8.66699 -1 -18c0 -20 6.5 -37.167 19.5 -51.5s29.5 -21.5 49.5 -21.5
s36.833 7.16699 50.5 21.5s20.5 31.5 20.5 51.5c0 9.33301 -0.333008 15.333 -1 18h86z" />
    <glyph glyph-name="Uring" unicode="&#x16e;" horiz-adv-x="719" 
d="M637 700v-371c0 -112.667 -22.5 -197.667 -67.5 -255s-115.833 -86 -212.5 -86c-183.333 0 -275 113.667 -275 341v371h124v-392c0 -69.333 13.5 -121.833 40.5 -157.5s64.5 -53.5 112.5 -53.5c48.667 0 86.5 17.833 113.5 53.5s40.5 88.167 40.5 157.5v392h124zM254 825
c0 28.667 10.333 53.334 31 74.001s45.334 31 74.001 31s53.334 -10.333 74.001 -31s31 -45.334 31 -74.001s-10.333 -53.334 -31 -74.001s-45.334 -31 -74.001 -31s-53.334 10.333 -74.001 31s-31 45.334 -31 74.001zM313 825c0 -12.667 4.5 -23.5 13.5 -32.5
s19.833 -13.5 32.5 -13.5s23.5 4.5 32.5 13.5s13.5 19.833 13.5 32.5s-4.5 23.5 -13.5 32.5s-19.833 13.5 -32.5 13.5s-23.5 -4.5 -32.5 -13.5s-13.5 -19.833 -13.5 -32.5z" />
    <glyph glyph-name="uring" unicode="&#x16f;" horiz-adv-x="613" 
d="M538 0h-109.999l-6 76c-40.667 -58.667 -95.334 -88 -164.001 -88c-60 0 -107.333 22 -142 66c-30.667 40.667 -46 105 -46 193v268h121v-259c0 -59.333 6.66699 -100.333 20 -123c15.333 -26 41.333 -39 78 -39c24 0 47.5 7.16699 70.5 21.5s42.167 33.5 57.5 57.5v342
h121v-515zM201.001 673c0 28.667 10.167 53.334 30.5 74.001s45.166 31 74.499 31s54.166 -10.333 74.499 -31s30.5 -45.334 30.5 -74.001s-10.167 -53.334 -30.5 -74.001s-45.166 -31 -74.499 -31s-54.166 10.333 -74.499 31s-30.5 45.334 -30.5 74.001zM261.001 673
c0 -12.667 4.33301 -23.334 13 -32.001s19.334 -13 32.001 -13s23.334 4.33301 32.001 13s13 19.334 13 32.001s-4.33301 23.334 -13 32.001s-19.334 13 -32.001 13s-23.334 -4.33301 -32.001 -13s-13 -19.334 -13 -32.001z" />
    <glyph glyph-name="Uhungarumlaut" unicode="&#x170;" horiz-adv-x="719" 
d="M637 700v-371c0 -112.667 -22.5 -197.667 -67.5 -255s-115.833 -86 -212.5 -86c-183.333 0 -275 113.667 -275 341v371h124v-392c0 -69.333 13.5 -121.833 40.5 -157.5s64.5 -53.5 112.5 -53.5c48.667 0 86.5 17.833 113.5 53.5s40.5 88.167 40.5 157.5v392h124zM633 859
l-173 -123l-55 69l164 138zM404 863l-179 -127l-54 67l170 142z" />
    <glyph glyph-name="uhungarumlaut" unicode="&#x171;" horiz-adv-x="613" 
d="M538 0h-109.999l-6 76c-40.667 -58.667 -95.334 -88 -164.001 -88c-60 0 -107.333 22 -142 66c-30.667 40.667 -46 105 -46 193v268h121v-259c0 -59.333 6.66699 -100.333 20 -123c15.333 -26 41.333 -39 78 -39c24 0 47.5 7.16699 70.5 21.5s42.167 33.5 57.5 57.5v342
h121v-515zM552.001 738l-139 -165l-71 54l127 176zM370.001 747l-141 -167l-71 54l129 178z" />
    <glyph glyph-name="Uogonek" unicode="&#x172;" horiz-adv-x="719" 
d="M465 -124l33 -67c-28 -20 -62.333 -30 -103 -30c-34.667 0 -64 9.5 -88 28.5s-36 44.167 -36 75.5c0 43.333 19.333 78.666 58 105.999c-164.667 10.667 -247 124 -247 340v371h124v-392c0 -69.333 13.5 -121.833 40.5 -157.5s64.5 -53.5 112.5 -53.5
c48.667 0 86.5 17.833 113.5 53.5s40.5 88.167 40.5 157.5v392h124v-371c0 -178.667 -56.667 -287 -170 -325c-26.667 -8.66699 -49 -21.167 -67 -37.5s-27 -35.166 -27 -56.499c0 -31.333 15.333 -47 46 -47c14.667 0 30 4.33301 46 13z" />
    <glyph glyph-name="uogonek" unicode="&#x173;" horiz-adv-x="613" 
d="M538 515l0.000976562 -515c-34 -8.66699 -59.667 -21.5 -77 -38.5s-26 -36.167 -26 -57.5c0 -27.333 15.333 -41 46 -41c14.667 0 30 4.33301 46 13l33 -67c-28 -20 -62 -30 -102 -30c-34.667 0 -64.167 9.5 -88.5 28.5s-36.5 44.167 -36.5 75.5
c0 53.333 31.667 93.333 95 120l-6 73c-40.667 -58.667 -95.334 -88 -164.001 -88c-60 0 -107.333 22 -142 66c-30.667 40.667 -46 105 -46 193v268h121v-259c0 -59.333 6.66699 -100.333 20 -123c15.333 -26 41.333 -39 78 -39c24 0 47.5 7.16699 70.5 21.5
s42.167 33.5 57.5 57.5v342h121z" />
    <glyph glyph-name="Wcircumflex" unicode="&#x174;" horiz-adv-x="920" 
d="M519 700l128 -481h2l131 481h135l-200 -700h-123l-132 490h-2l-140 -490h-119l-194 700h137l125 -481h2l134 481h116zM397 928h132l110 -138l-70 -53l-108 115l-107 -115l-71 53z" />
    <glyph glyph-name="wcircumflex" unicode="&#x175;" horiz-adv-x="750" 
d="M434 514l93 -350h2l92 350h124l-149 -514h-127l-93 337h-2l-95 -337h-132l-142 514h130l84 -351h2l99 351h114zM317 786h121l106 -163l-67 -43l-101 131l-99 -131l-69 43z" />
    <glyph glyph-name="Ycircumflex" unicode="&#x176;" horiz-adv-x="586" 
d="M351 0h-124v298l-222 402h153l136 -269h2l141 269h144l-230 -407v-293zM229 928h132l110 -138l-70 -53l-108 115l-107 -115l-71 53z" />
    <glyph glyph-name="ycircumflex" unicode="&#x177;" horiz-adv-x="509" 
d="M4 515h133l116 -341h2l118 341h132l-290 -749l-108 41l82 217zM199 786h121l106 -163l-67 -43l-101 131l-99 -131l-69 43z" />
    <glyph glyph-name="Ydieresis" unicode="&#x178;" horiz-adv-x="586" 
d="M351 0h-124v298l-222 402h153l136 -269h2l141 269h144l-230 -407v-293zM238 763h-128v116h128v-116zM489 763h-128v116h128v-116z" />
    <glyph glyph-name="Zacute" unicode="&#x179;" horiz-adv-x="556" 
d="M514 636l-310 -530h334v-106h-502v66l310 528h-302v106h470v-64zM434 863l-179 -127l-55 69l170 142z" />
    <glyph glyph-name="zacute" unicode="&#x17a;" horiz-adv-x="471" 
d="M54 55l209 358h-220v102h379v-54l-210 -359h227v-102h-385v55zM395 740l-141 -167l-71 54l129 178z" />
    <glyph glyph-name="Zdotaccent" unicode="&#x17b;" horiz-adv-x="556" 
d="M514 636l-310 -530h334v-106h-502v66l310 528h-302v106h470v-64zM333 763h-128v116h128v-116z" />
    <glyph glyph-name="zdotaccent" unicode="&#x17c;" horiz-adv-x="471" 
d="M54 55l209 358h-220v102h379v-54l-210 -359h227v-102h-385v55zM290 599h-121v113h121v-113z" />
    <glyph glyph-name="Zcaron" unicode="&#x17d;" horiz-adv-x="556" 
d="M514 636l-310 -530h334v-106h-502v66l310 528h-302v106h470v-64zM330 748h-132l-110 138l71 53l108 -115l107 115l70 -53z" />
    <glyph glyph-name="zcaron" unicode="&#x17e;" horiz-adv-x="471" 
d="M54 55l209 358h-220v102h379v-54l-210 -359h227v-102h-385v55zM304 582h-121l-106 163l69 43l101 -131l98 131l68 -43z" />
    <glyph glyph-name="longs" unicode="&#x17f;" horiz-adv-x="313" 
d="M361 735l-33.001 -94.001c-21.333 11.333 -43.333 17 -66 17c-28.667 0 -47.667 -7.66699 -57 -23s-14 -40.666 -14 -75.999v-559h-119v566c0 130.667 56.667 196 170 196c34.667 0 74.334 -9 119.001 -27z" />
    <glyph glyph-name="florin" unicode="&#x192;" 
d="M413 410l-0.000976562 -105h-128l-39 -340c-6 -54.667 -23.333 -96.667 -52 -126s-65.667 -44 -111 -44c-27.333 0 -57.333 4.33301 -90 13l25 99c18.667 -4.66699 35.667 -7 51 -7c20.667 0 34.834 6.83301 42.501 20.5s13.167 35.5 16.5 65.5l36 319h-76v105h88l11 97
c6 54 24.167 95.833 54.5 125.5s69.833 44.5 118.5 44.5c46 0 93.333 -11.667 142 -35l-42 -96c-26.667 17.333 -55.667 26 -87 26c-24 0 -40.5 -7 -49.5 -21s-15.167 -35.667 -18.5 -65l-9 -76h117z" />
    <glyph glyph-name="Aringacute" unicode="&#x1fa;" horiz-adv-x="674" 
d="M244 815c0 28.667 9.83301 52.834 29.5 72.501s43.5 29.5 71.5 29.5c28.667 0 52.834 -9.83301 72.501 -29.5s29.5 -43.834 29.5 -72.501c0 -28 -9.83301 -51.833 -29.5 -71.5s-43.834 -29.5 -72.501 -29.5c-28 0 -51.833 9.83301 -71.5 29.5s-29.5 43.5 -29.5 71.5z
M302 815c0 -12 4.16699 -22.167 12.5 -30.5s18.5 -12.5 30.5 -12.5c12.667 0 23.167 4.16699 31.5 12.5s12.5 18.5 12.5 30.5c0 12.667 -4.16699 23.167 -12.5 31.5s-18.833 12.5 -31.5 12.5c-12 0 -22.167 -4.16699 -30.5 -12.5s-12.5 -18.833 -12.5 -31.5zM487 1035
l-189 -112l-43 64l181 128zM14 0l279 700h103l265 -700h-142l-49 138h-270l-50 -138h-136zM336 511l-98 -269h195l-96 269h-1z" />
    <glyph glyph-name="aringacute" unicode="&#x1fb;" horiz-adv-x="563" 
d="M192 646c0 27.333 9.5 50.666 28.5 69.999s42.5 29 70.5 29s51.5 -9.66699 70.5 -29s28.5 -42.666 28.5 -69.999s-9.5 -50.666 -28.5 -69.999s-42.5 -29 -70.5 -29s-51.5 9.66699 -70.5 29s-28.5 42.666 -28.5 69.999zM248 646c0 -12 4 -22.167 12 -30.5
s18.333 -12.5 31 -12.5s23 4.16699 31 12.5s12 18.5 12 30.5s-4 22.167 -12 30.5s-18.333 12.5 -31 12.5s-23 -4.16699 -31 -12.5s-12 -18.5 -12 -30.5zM437 869l-187 -113l-41 62l181 125zM493 0l-107.998 -0.000976562l-6 48c-33.333 -40 -82 -60 -146 -60
c-51.333 0 -95 14 -131 42s-54 67.667 -54 119c0 30.667 6.5 57.334 19.5 80.001s30.833 40.167 53.5 52.5s46.667 21.333 72 27s52.666 8.5 81.999 8.5c30 0 62.333 -3.66699 97 -11v12c0 74.667 -36.667 112 -110 112c-48.667 0 -101.667 -15 -159 -45l-33 91
c69.333 34 140.666 51 213.999 51c139.333 0 209 -72 209 -216v-311zM372.002 128.999l-0.000976562 99.001c-29.333 6.66699 -55.666 10 -78.999 10c-34 0 -63.5 -6.5 -88.5 -19.5s-37.5 -34.833 -37.5 -65.5c0 -24.667 8.33301 -43.334 25 -56.001s37.667 -19 63 -19
c38 0 77 17 117 51z" />
    <glyph glyph-name="AEacute" unicode="&#x1fc;" horiz-adv-x="1000" 
d="M941 0h-437v138h-263l-95 -138h-155l514 700h436v-106h-313v-180h313v-107h-313v-201h313v-106zM312 243h192v278zM751 863l-179 -127l-55 69l170 142z" />
    <glyph glyph-name="aeacute" unicode="&#x1fd;" horiz-adv-x="908" 
d="M388 145c-9.33301 24.667 -15.667 52.668 -19 84.001c-30 6 -55.333 9 -76 9c-34 0 -63.5 -6.5 -88.5 -19.5s-37.5 -34.833 -37.5 -65.5c0 -24.667 8.33301 -43.334 25 -56.001s37.667 -19 63 -19c50.667 0 95 22.333 133 67zM776.999 167.001l82.001 -55.002
c-29.333 -42.667 -62 -74 -98 -94s-80.667 -30 -134 -30c-82 0 -146.333 27 -193 81c-54 -54 -121 -81 -201 -81c-51.333 0 -95 14 -131 42s-54 67.667 -54 119c0 30.667 6.5 57.334 19.5 80.001s30.833 40.167 53.5 52.5s46.667 21.333 72 27s52.666 8.5 81.999 8.5
c30 0 62.333 -3.66699 97 -11v12c0 74.667 -36.667 112 -110 112c-48.667 0 -101.667 -15 -159 -45l-33 91c69.333 34 140.666 51 213.999 51c80 0 136 -24.667 168 -74c47.333 49.333 106 74 176 74s128 -22.667 174 -68s69 -102.333 69 -171
c0 -15.333 -2 -35.666 -6 -60.999h-374c4 -40 18.833 -73.333 44.5 -100s58.5 -40 98.5 -40c62.667 0 110.334 26.667 143.001 80zM498 313.999h248.999c-1.33301 33.333 -13 61 -35 83s-49 33 -81 33c-35.333 0 -64.166 -10.5 -86.499 -31.5s-37.833 -49.167 -46.5 -84.5z
M611.999 739.999l-141 -167l-71 54l129 178z" />
    <glyph glyph-name="Oslashacute" unicode="&#x1fe;" horiz-adv-x="835" 
d="M587 863l-179 -127l-55 69l170 142zM687 668l-30.002 -45c38.667 -33.333 69 -73.833 91 -121.5s33 -98.167 33 -151.5c0 -100.667 -35 -186.167 -105 -256.5s-156.333 -105.5 -259 -105.5c-59.333 0 -113.666 12.333 -162.999 37l-34 -49l-82 53l34 51
c-37.333 33.333 -66.333 73.333 -87 120s-31 96.667 -31 150c0 100.667 34.833 186.167 104.5 256.5s155.834 105.5 258.501 105.5c56 0 108.667 -12 158 -36l30 45zM649.998 350c0 66.667 -20.333 124 -61 172l-272 -402c30.667 -15.333 64 -23 100 -23
c67.333 0 123 24.333 167 73s66 108.667 66 180zM184.998 350c0 -66 19 -121.667 57 -167l269 399c-28 14 -59.333 21 -94 21c-66.667 0 -122 -24.333 -166 -73s-66 -108.667 -66 -180z" />
    <glyph glyph-name="oslashacute" unicode="&#x1ff;" horiz-adv-x="608" 
d="M508 495l-23.999 -36c58 -51.333 87 -118.333 87 -201c0 -76 -25.333 -140 -76 -192s-114.334 -78 -191.001 -78c-42.667 0 -82.667 9 -120 27l-28 -41l-65 43l29 42c-55.333 52 -83 118.333 -83 199c0 76 25.333 139.833 76 191.5s114.334 77.5 191.001 77.5
c41.333 0 79.666 -8.33301 114.999 -25l24 36zM448.001 258c0 38.667 -10.666 72.333 -31.999 101l-170 -252c16.667 -8.66699 36 -13 58 -13c41.333 0 75.666 15.833 102.999 47.5s41 70.5 41 116.5zM160.002 257.999c0 -37.333 9.33301 -70 28 -98l168 250
c-16 7.33301 -33.333 11 -52 11c-42 0 -76.5 -15.667 -103.5 -47s-40.5 -70 -40.5 -116zM469.002 739.999l-141 -167l-71 54l129 178z" />
    <glyph glyph-name="Scommaaccent" unicode="&#x218;" horiz-adv-x="609" 
d="M464 545c-45.333 40 -94.0039 59.998 -146.004 59.998c-30 0 -54.833 -7.33301 -74.5 -22s-29.5 -34.667 -29.5 -60c0 -10.667 2.83301 -20.5 8.5 -29.5s11.834 -16.333 18.501 -22s17 -11.834 31 -18.501s24.5 -11.334 31.5 -14.001s18.833 -6.66699 35.5 -12
c32.667 -11.333 59.167 -21.666 79.5 -30.999s42.666 -22.5 66.999 -39.5s42.5 -38.167 54.5 -63.5s18 -54.666 18 -87.999c0 -48.667 -13.667 -90 -41 -124s-59.666 -58 -96.999 -72s-76.666 -21 -117.999 -21c-99.333 0 -186.666 37.333 -261.999 112l84 81
c32 -30.667 61.167 -52.667 87.5 -66s56.833 -20 91.5 -20s64 8.66699 88 26s36 43 36 77c0 12.667 -3 24.5 -9 35.5s-12.667 20 -20 27s-18.666 14.333 -33.999 22s-27.833 13.5 -37.5 17.5s-24.167 9.33301 -43.5 16c-28 10 -51.667 19.833 -71 29.5
s-39.166 22.167 -59.499 37.5s-35.833 34.333 -46.5 57s-16 48.334 -16 77.001c0 62.667 21.333 110.834 64 144.501s95 50.5 157 50.5c81.333 0 156.666 -26 225.999 -78zM273.996 -242.002h-94l36 185h110z" />
    <glyph glyph-name="scommaaccent" unicode="&#x219;" horiz-adv-x="468" 
d="M412 464l-68 -73.999c-30 26.667 -64 40 -102 40c-18 0 -32.667 -4.5 -44 -13.5s-17 -21.167 -17 -36.5c0 -10.667 4.83301 -20.834 14.5 -30.501s19.5 -17 29.5 -22s25 -11.5 45 -19.5c22 -8.66699 39.5 -16.334 52.5 -23.001s28.167 -16.167 45.5 -28.5
s30.333 -27.166 39 -44.499s13 -37.333 13 -60c0 -54 -18.667 -94.833 -56 -122.5s-83.333 -41.5 -138 -41.5c-78.667 0 -143.667 28.333 -195 85l74 70c38.667 -38.667 78 -58 118 -58c20.667 0 38.667 5 54 15s23 24.667 23 44c0 11.333 -5.5 22 -16.5 32
s-21.667 17.5 -32 22.5s-26.166 11.833 -47.499 20.5c-20 8 -36.167 15.333 -48.5 22s-26.5 16 -42.5 28s-28 26.5 -36 43.5s-12 36.5 -12 58.5c0 50 17.167 88.5 51.5 115.5s76.166 40.5 125.499 40.5c68 0 124.667 -21 170 -63zM211 -241.999h-94l36 185h110z" />
    <glyph glyph-name="uni021A" unicode="&#x21a;" horiz-adv-x="491" 
d="M477 594h-170v-594h-124v594h-170v106h464v-106zM242 -242h-94l36 185h110z" />
    <glyph glyph-name="uni021B" unicode="&#x21b;" horiz-adv-x="362" 
d="M336 413h-136.001v-213c0 -18 0.333008 -32.333 1 -43c4 -42 22.667 -63 56 -63c20.667 0 39.667 4.66699 57 14l36 -92c-32 -18 -69.333 -27 -112 -27c-37.333 0 -68.666 8.66699 -93.999 26s-43 41.333 -53 72c-8.66699 23.333 -13 55 -13 95v231h-64v102h64l13 118
h109v-118h136v-102zM187.999 -242h-94l36 185h110z" />
    <glyph glyph-name="dotlessj" unicode="&#x237;" horiz-adv-x="278" 
d="M203 515l-0.000976562 -555c0 -48 -8.33301 -86.333 -25 -115c-28 -46.667 -75.333 -70 -142 -70c-39.333 0 -74.666 7.33301 -105.999 22l33 96c18.667 -8.66699 38.334 -13 59.001 -13c25.333 0 41.666 7.83301 48.999 23.5s11 39.167 11 70.5v541h121z" />
    <glyph glyph-name="apostrophe" unicode="&#x2bc;" horiz-adv-x="360" 
d="M147 750h126l-64 -235h-103z" />
    <glyph glyph-name="circumflex" unicode="&#x2c6;" horiz-adv-x="360" 
d="M119 786h121l106 -163l-67 -43l-101 131l-99 -131l-69 43z" />
    <glyph glyph-name="caron" unicode="&#x2c7;" horiz-adv-x="360" 
d="M237 582h-121l-106 163l69 43l101 -131l98 131l68 -43z" />
    <glyph glyph-name="uni02C9" unicode="&#x2c9;" horiz-adv-x="360" 
d="M342 609h-324v86h324v-86z" />
    <glyph glyph-name="breve" unicode="&#x2d8;" horiz-adv-x="360" 
d="M336 749l-0.00195312 -17c0 -43.333 -15.167 -80 -45.5 -110s-67.166 -45 -110.499 -45s-80.166 15 -110.499 45s-45.5 66.667 -45.5 110v17h88c-0.666992 -2.66699 -1 -8.66699 -1 -18c0 -20 6.5 -37.167 19.5 -51.5s29.5 -21.5 49.5 -21.5s36.833 7.16699 50.5 21.5
s20.5 31.5 20.5 51.5c0 9.33301 -0.333008 15.333 -1 18h86z" />
    <glyph glyph-name="dotaccent" unicode="&#x2d9;" horiz-adv-x="360" 
d="M241 599h-121v113h121v-113z" />
    <glyph glyph-name="ring" unicode="&#x2da;" horiz-adv-x="360" 
d="M75 685c0 28.667 10.167 53.334 30.5 74.001s45.166 31 74.499 31s54.166 -10.333 74.499 -31s30.5 -45.334 30.5 -74.001s-10.167 -53.334 -30.5 -74.001s-45.166 -31 -74.499 -31s-54.166 10.333 -74.499 31s-30.5 45.334 -30.5 74.001zM135 685
c0 -12.667 4.33301 -23.334 13 -32.001s19.334 -13 32.001 -13s23.334 4.33301 32.001 13s13 19.334 13 32.001s-4.33301 23.334 -13 32.001s-19.334 13 -32.001 13s-23.334 -4.33301 -32.001 -13s-13 -19.334 -13 -32.001z" />
    <glyph glyph-name="ogonek" unicode="&#x2db;" horiz-adv-x="360" 
d="M164 10l99 -0.000976562v-10c-34 -9.33301 -60.667 -22.666 -80 -39.999s-29 -37.333 -29 -60c0 -27.333 15.667 -41 47 -41c14.667 0 30 4.33301 46 13l32 -67c-26.667 -20 -60.667 -30 -102 -30c-34.667 0 -64.167 9.5 -88.5 28.5s-36.5 44.167 -36.5 75.5
c0 60 37.333 103.667 112 131z" />
    <glyph glyph-name="tilde" unicode="&#x2dc;" horiz-adv-x="360" 
d="M78 604l-74 -8c-3.33301 11.333 -5 22 -5 32c0 29.333 10 53.166 30 71.499s46.333 27.5 79 27.5c24.667 0 52.834 -9.33301 84.501 -28s52.167 -28 61.5 -28c18 0 27.667 8.66699 29 26c0 4 -0.333008 6.66699 -1 8l74 8c3.33301 -11.333 5 -22 5 -32
c0 -29.333 -10 -53.166 -30 -71.499s-46.333 -27.5 -79 -27.5c-24.667 0 -52.834 9.33301 -84.501 28s-52.167 28 -61.5 28c-18 0 -27.667 -8.66699 -29 -26c0 -4 0.333008 -6.66699 1 -8z" />
    <glyph glyph-name="hungarumlaut" unicode="&#x2dd;" horiz-adv-x="360" 
d="M412 738l-139 -165l-71 54l127 176zM230 747l-141 -167l-71 54l129 178z" />
    <glyph glyph-name="uni0394" unicode="&#x394;" 
d="M552 0h-555l223 574h112zM382 102l-109 299h-2l-109 -299h220z" />
    <glyph glyph-name="uni03A9" unicode="&#x3a9;" horiz-adv-x="794" 
d="M17 100h177c-48 35.333 -84.5 77.5 -109.5 126.5s-37.5 100.167 -37.5 153.5c0 95.333 33 174.5 99 237.5s149.667 94.5 251 94.5s185 -31.5 251 -94.5s99 -142.167 99 -237.5c0 -53.333 -12.5 -104.5 -37.5 -153.5s-61.5 -91.167 -109.5 -126.5h177v-100h-332v110
c53.333 19.333 95.333 53.833 126 103.5s46 103.167 46 160.5c0 66 -19.833 120.667 -59.5 164s-93.167 65 -160.5 65s-120.833 -21.667 -160.5 -65s-59.5 -98 -59.5 -164c0 -57.333 15.333 -110.833 46 -160.5s72.667 -84.167 126 -103.5v-110h-332v100z" />
    <glyph glyph-name="uni03BC" unicode="&#x3bc;" 
d="M399 0l-7.00098 76c-40 -58.667 -94.333 -88 -163 -88c-24 0 -46.333 4.33301 -67 13v-251h-121v765h121v-261c0 -23.333 0.833008 -42.333 2.5 -57s5.33398 -31 11.001 -49s15.5 -31.5 29.5 -40.5s32.333 -13.5 55 -13.5c24 0 47.5 7.16699 70.5 21.5
s42.167 33.5 57.5 57.5v342h121v-515h-110z" />
    <glyph glyph-name="pi" unicode="&#x3c0;" 
d="M543 415l-91 0.00195312v-233c0 -15.333 0.333008 -26 1 -32c1.33301 -20.667 5.83301 -36.334 13.5 -47.001s20.167 -18 37.5 -22l-47 -100c-74 19.333 -114.667 70.666 -122 153.999c-0.666992 7.33301 -1 20 -1 38v242h-135v-344c0 -21.333 -2 -45 -6 -71h-122
c6 20.667 9 46.667 9 78v337h-58v100h521v-100z" />
    <glyph glyph-name="Wgrave" unicode="&#x1e80;" horiz-adv-x="920" 
d="M519 700l128 -481h2l131 481h135l-200 -700h-123l-132 490h-2l-140 -490h-119l-194 700h137l125 -481h2l134 481h116zM473 736l-179 127l64 84l170 -142z" />
    <glyph glyph-name="wgrave" unicode="&#x1e81;" horiz-adv-x="750" 
d="M434 514l93 -350h2l92 350h124l-149 -514h-127l-93 337h-2l-95 -337h-132l-142 514h130l84 -351h2l99 351h114zM359 573l-141 167l83 65l129 -178z" />
    <glyph glyph-name="Wacute" unicode="&#x1e82;" horiz-adv-x="920" 
d="M519 700l128 -481h2l131 481h135l-200 -700h-123l-132 490h-2l-140 -490h-119l-194 700h137l125 -481h2l134 481h116zM631 863l-179 -127l-55 69l170 142z" />
    <glyph glyph-name="wacute" unicode="&#x1e83;" horiz-adv-x="750" 
d="M434 514l93 -350h2l92 350h124l-149 -514h-127l-93 337h-2l-95 -337h-132l-142 514h130l84 -351h2l99 351h114zM534 740l-141 -167l-71 54l129 178z" />
    <glyph glyph-name="Wdieresis" unicode="&#x1e84;" horiz-adv-x="920" 
d="M519 700l128 -481h2l131 481h135l-200 -700h-123l-132 490h-2l-140 -490h-119l-194 700h137l125 -481h2l134 481h116zM389 763h-130v116h130v-116zM663 763h-130v116h130v-116z" />
    <glyph glyph-name="wdieresis" unicode="&#x1e85;" horiz-adv-x="750" 
d="M434 514l93 -350h2l92 350h124l-149 -514h-127l-93 337h-2l-95 -337h-132l-142 514h130l84 -351h2l99 351h114zM325 599h-122v113h122v-113zM551 599h-122v113h122v-113z" />
    <glyph glyph-name="Ygrave" unicode="&#x1ef2;" horiz-adv-x="586" 
d="M351 0h-124v298l-222 402h153l136 -269h2l141 269h144l-230 -407v-293zM331 736l-179 127l64 84l170 -142z" />
    <glyph glyph-name="ygrave" unicode="&#x1ef3;" horiz-adv-x="509" 
d="M4 515h133l116 -341h2l118 341h132l-290 -749l-108 41l82 217zM273 573l-141 167l83 65l129 -178z" />
    <glyph glyph-name="thinspace" unicode="&#x2009;" horiz-adv-x="125" 
 />
    <glyph glyph-name="endash" unicode="&#x2013;" horiz-adv-x="600" 
d="M550 262h-500v104h500v-104z" />
    <glyph glyph-name="emdash" unicode="&#x2014;" horiz-adv-x="900" 
d="M850 262h-800v104h800v-104z" />
    <glyph glyph-name="quoteleft" unicode="&#x2018;" horiz-adv-x="293" 
d="M239 700l-54 -265h-131l69 265h116z" />
    <glyph glyph-name="quoteright" unicode="&#x2019;" horiz-adv-x="293" 
d="M239 700l-70 -265h-115l54 265h131z" />
    <glyph glyph-name="quotesinglbase" unicode="&#x201a;" horiz-adv-x="293" 
d="M239 136l-70 -265h-115l54 265h131z" />
    <glyph glyph-name="quotedblleft" unicode="&#x201c;" horiz-adv-x="552" 
d="M257 700l-55 -265h-130l70 265h115zM480 700l-55 -265h-130l70 265h115z" />
    <glyph glyph-name="quotedblright" unicode="&#x201d;" horiz-adv-x="552" 
d="M295 435l55 265h130l-70 -265h-115zM72 435l55 265h130l-70 -265h-115z" />
    <glyph glyph-name="quotedblbase" unicode="&#x201e;" horiz-adv-x="552" 
d="M295 -129l55 265h130l-70 -265h-115zM72 -129l55 265h130l-70 -265h-115z" />
    <glyph glyph-name="dagger" unicode="&#x2020;" horiz-adv-x="420" 
d="M162 138v161l4 155l-64 -2h-39v87h39l64 -3l-4 116v48h96v-48l-4 -116l64 3h39v-87h-39l-64 2l4 -155v-161h-96z" />
    <glyph glyph-name="daggerdbl" unicode="&#x2021;" horiz-adv-x="420" 
d="M63 428l102 -2l-1 22v38l1 34l-102 -2v86l102 -3l-3 99h96l-3 -99l102 3v-86l-102 2l1 -34v-38l-1 -22l102 2v-86l-102 2l3 -63v-143h-96v143l3 63l-102 -2v86z" />
    <glyph glyph-name="bullet" unicode="&#x2022;" horiz-adv-x="340" 
d="M35 289c0 37.333 13.167 69.166 39.5 95.499s58.166 39.5 95.499 39.5s69.166 -13.167 95.499 -39.5s39.5 -58.166 39.5 -95.499s-13.167 -69.166 -39.5 -95.499s-58.166 -39.5 -95.499 -39.5s-69.166 13.167 -95.499 39.5s-39.5 58.166 -39.5 95.499z" />
    <glyph glyph-name="ellipsis" unicode="&#x2026;" horiz-adv-x="750" 
d="M195 0h-133v136h133v-136zM687 0h-133v136h133v-136zM441 0h-133v136h133v-136z" />
    <glyph glyph-name="perthousand" unicode="&#x2030;" horiz-adv-x="1243" 
d="M645 715l64 -47l-498 -683l-64 47zM222 706c46.667 0 86.5 -15.833 119.5 -47.5s49.5 -71.167 49.5 -118.5s-16.5 -86.833 -49.5 -118.5s-72.833 -47.5 -119.5 -47.5c-47.333 0 -87.5 15.833 -120.5 47.5s-49.5 71.167 -49.5 118.5s16.5 86.833 49.5 118.5
s73.167 47.5 120.5 47.5zM222 618c-21.333 0 -38.833 -7.33301 -52.5 -22s-20.5 -33.334 -20.5 -56.001s6.83301 -41.334 20.5 -56.001s31.167 -22 52.5 -22c20.667 0 37.834 7.33301 51.501 22s20.5 33.334 20.5 56.001s-6.83301 41.334 -20.5 56.001
s-30.834 22 -51.501 22zM632 326c46.667 0 86.5 -15.833 119.5 -47.5s49.5 -71.167 49.5 -118.5s-16.5 -86.833 -49.5 -118.5s-72.833 -47.5 -119.5 -47.5c-47.333 0 -87.5 15.833 -120.5 47.5s-49.5 71.167 -49.5 118.5s16.5 86.833 49.5 118.5s73.167 47.5 120.5 47.5z
M632 238c-21.333 0 -38.833 -7.33301 -52.5 -22s-20.5 -33.334 -20.5 -56.001s6.83301 -41.334 20.5 -56.001s31.167 -22 52.5 -22c20.667 0 37.834 7.33301 51.501 22s20.5 33.334 20.5 56.001s-6.83301 41.334 -20.5 56.001s-30.834 22 -51.501 22zM1022 326
c46.667 0 86.5 -15.833 119.5 -47.5s49.5 -71.167 49.5 -118.5s-16.5 -86.833 -49.5 -118.5s-72.833 -47.5 -119.5 -47.5c-47.333 0 -87.5 15.833 -120.5 47.5s-49.5 71.167 -49.5 118.5s16.5 86.833 49.5 118.5s73.167 47.5 120.5 47.5zM1022 238
c-21.333 0 -38.833 -7.33301 -52.5 -22s-20.5 -33.334 -20.5 -56.001s6.83301 -41.334 20.5 -56.001s31.167 -22 52.5 -22c20.667 0 37.834 7.33301 51.501 22s20.5 33.334 20.5 56.001s-6.83301 41.334 -20.5 56.001s-30.834 22 -51.501 22z" />
    <glyph glyph-name="guilsinglleft" unicode="&#x2039;" horiz-adv-x="325" 
d="M54 324l154 160l64 -98l-127 -121l127 -121l-64 -98l-154 161v117z" />
    <glyph glyph-name="guilsinglright" unicode="&#x203a;" horiz-adv-x="325" 
d="M117 484l155 -161v-117l-155 -160l-63 98l126 120l-126 122z" />
    <glyph glyph-name="fraction" unicode="&#x2044;" horiz-adv-x="142" 
d="M288 715l64 -47l-498 -683l-64 47z" />
    <glyph glyph-name="zerosuperior" unicode="&#x2070;" horiz-adv-x="346" 
d="M173 433c40 0 60 45 60 135s-20 135 -60 135s-60 -45 -60 -135s20 -135 60 -135zM173 775c48.667 0 86.167 -18.1709 112.5 -54.5039s39.5 -87.166 39.5 -152.499s-13.167 -116.166 -39.5 -152.499s-63.833 -54.5 -112.5 -54.5c-48 0 -85.5 18.333 -112.5 55
s-40.5 87.334 -40.5 152.001s13.5 115.334 40.5 152.001s64.5 55 112.5 55z" />
    <glyph glyph-name="foursuperior" unicode="&#x2074;" horiz-adv-x="344" 
d="M18 542c40 50 96.333 125.667 169 227h93v-232h54v-70h-54v-100h-89v100h-173v75zM191 537l0.000976562 119c-32.667 -52 -60.334 -91.667 -83.001 -119h83z" />
    <glyph glyph-name="fivesuperior" unicode="&#x2075;" horiz-adv-x="325" 
d="M282 698l-146 -0.00195312c-0.666992 -10.667 -2.66699 -38.667 -6 -84c14.667 7.33301 32 11 52 11c34 0 62.333 -12.167 85 -36.5s34 -53.5 34 -87.5c0 -40 -13.667 -73.167 -41 -99.5s-61.333 -39.5 -102 -39.5c-30.667 0 -58.5 6.66699 -83.5 20s-43.833 33 -56.5 59
l69 34c11.333 -27.333 32 -41 62 -41c18 0 32.333 5.83301 43 17.5s16 25.834 16 42.501s-5.5 30.334 -16.5 41.001s-25.167 16 -42.5 16c-20 0 -37 -8 -51 -24l-57 38c6 57.333 10.333 125.333 13 204h228v-71z" />
    <glyph glyph-name="sixsuperior" unicode="&#x2076;" horiz-adv-x="344" 
d="M234 795l29.002 -72.001c-72.667 -27.333 -118.667 -66.666 -138 -117.999c20.667 14.667 44 22 70 22c36.667 0 67.167 -12.333 91.5 -37s36.5 -55.667 36.5 -93c0 -40 -13.333 -72.667 -40 -98s-60.334 -38 -101.001 -38c-48.667 0 -87.834 15.5 -117.501 46.5
s-44.5 70.5 -44.5 118.5c0 64.667 19.833 120 59.5 166s91.167 80.333 154.5 103zM113.002 521.999c0 -26 5.16797 -47.5 15.501 -64.5s26.166 -25.5 47.499 -25.5c16.667 0 30 6 40 18s15 26.333 15 43c0 18 -5.16699 33 -15.5 45s-23.833 18 -40.5 18
c-26 0 -46.667 -11.333 -62 -34z" />
    <glyph glyph-name="sevensuperior" unicode="&#x2077;" horiz-adv-x="291" 
d="M282 769l0.000976562 -52c-52.667 -110 -107.334 -232.667 -164.001 -368l-82 37c44 101.333 92.667 205 146 311h-176v72h276z" />
    <glyph glyph-name="eightsuperior" unicode="&#x2078;" horiz-adv-x="352" 
d="M310 663c0 -37.333 -16.333 -65.667 -49 -85c40 -24 60 -56.667 60 -98c0 -34 -13.833 -62.333 -41.5 -85s-62.167 -34 -103.5 -34s-75.833 11.333 -103.5 34s-41.5 51 -41.5 85c0 42.667 19.667 75.334 59 98.001c-32 21.333 -48 49.666 -48 84.999
c0 32 12.5 58.667 37.5 80s57.167 32 96.5 32s71.5 -10.667 96.5 -32s37.5 -48 37.5 -80zM176 538.999c-15.333 0 -28 -5.16699 -38 -15.5s-15 -23.166 -15 -38.499s5.16699 -28.166 15.5 -38.499s22.833 -15.5 37.5 -15.5s27.167 5.16699 37.5 15.5
s15.5 23.166 15.5 38.499s-5 28.166 -15 38.499s-22.667 15.5 -38 15.5zM176 702.999c-12.667 0 -23.167 -4.33301 -31.5 -13s-12.5 -19.334 -12.5 -32.001c0 -13.333 4.16699 -24.666 12.5 -33.999s18.833 -14 31.5 -14s23.167 4.66699 31.5 14s12.5 20.666 12.5 33.999
c0 12.667 -4.16699 23.334 -12.5 32.001s-18.833 13 -31.5 13z" />
    <glyph glyph-name="ninesuperior" unicode="&#x2079;" horiz-adv-x="344" 
d="M109 341l-29 72.001c74 26.667 120 66 138 118c-20 -14.667 -43.333 -22 -70 -22c-36.667 0 -67.167 12.167 -91.5 36.5s-36.5 55.166 -36.5 92.499c0 40 13.5 72.833 40.5 98.5s60.833 38.5 101.5 38.5c48.667 0 87.667 -15.5 117 -46.5s44 -70.5 44 -118.5
c0 -64.667 -19.833 -120 -59.5 -166s-91.167 -80.333 -154.5 -103zM231 614.001c0 25.333 -5.33203 46.667 -15.999 64s-26.667 26 -48 26c-16.667 0 -29.834 -6 -39.501 -18s-14.5 -26.667 -14.5 -44c0 -18 5 -32.833 15 -44.5s23.333 -17.5 40 -17.5c26 0 47 11.333 63 34
z" />
    <glyph glyph-name="plussuperior" unicode="&#x207a;" horiz-adv-x="338" 
d="M133 406v114h-114v72h114v114h72v-114h114v-72h-114v-114h-72z" />
    <glyph glyph-name="minussuperior" unicode="&#x207b;" horiz-adv-x="342" 
d="M27 592h288v-72h-288v72z" />
    <glyph glyph-name="equalsuperior" unicode="&#x207c;" horiz-adv-x="342" 
d="M27 649h288v-69h-288v69zM27 531h288v-69h-288v69z" />
    <glyph glyph-name="parenleftsuperior" unicode="&#x207d;" horiz-adv-x="226" 
d="M228 319l-33 -58.001c-114.667 70.667 -172 167.334 -172 290.001s57.333 219 172 289l34 -58c-80.667 -50.667 -121 -127.667 -121 -231c0 -104 40 -181.333 120 -232z" />
    <glyph glyph-name="parenrightsuperior" unicode="&#x207e;" horiz-adv-x="226" 
d="M30 261l-33 58c80.667 50.667 121 128 121 232c0 102 -40.333 179 -121 231l34 58c114.667 -70 172 -166.333 172 -289c0 -123.333 -57.667 -220 -173 -290z" />
    <glyph glyph-name="zeroinferior" unicode="&#x2080;" horiz-adv-x="346" 
d="M173 -111c40 0 60 45 60 135s-20 135 -60 135s-60 -45 -60 -135s20 -135 60 -135zM173 231c48.667 0 86.167 -18.1709 112.5 -54.5039s39.5 -87.166 39.5 -152.499s-13.167 -116.166 -39.5 -152.499s-63.833 -54.5 -112.5 -54.5c-48 0 -85.5 18.333 -112.5 55
s-40.5 87.334 -40.5 152.001s13.5 115.334 40.5 152.001s64.5 55 112.5 55z" />
    <glyph glyph-name="oneinferior" unicode="&#x2081;" horiz-adv-x="224" 
d="M175 -178l-91 0.000976562v302l-56 -24v78c48 25.333 77 40.666 87 45.999h60v-402z" />
    <glyph glyph-name="twoinferior" unicode="&#x2082;" horiz-adv-x="326" 
d="M31 -111c53.333 50.667 99.333 100.998 138 150.998c21.333 27.333 32 52.333 32 75c0 13.333 -4 23.833 -12 31.5s-18.333 11.5 -31 11.5c-13.333 0 -24 -5.33301 -32 -16s-12 -24 -12 -40l-91 12c2 34.667 15.833 62.667 41.5 84s56.5 32 92.5 32
c36.667 0 68.667 -10.167 96 -30.5s41 -47.166 41 -80.499c0 -37.333 -13.333 -73.666 -40 -108.999c-28.667 -38 -65 -77 -109 -117h163v-71h-277v67z" />
    <glyph glyph-name="threeinferior" unicode="&#x2083;" horiz-adv-x="336" 
d="M107 -8v69.001c20 0 36 1.66699 48 5c28.667 6.66699 43 22 43 46c0 13.333 -4.66699 24.333 -14 33s-21.666 13 -36.999 13c-27.333 0 -45.333 -13.333 -54 -40l-71 32c8.66699 25.333 24.5 45 47.5 59s49.167 21 78.5 21c39.333 0 72.666 -9.66699 99.999 -29
s41 -45.333 41 -78c0 -38.667 -18 -67.334 -54 -86.001c24 -7.33301 42.167 -20.333 54.5 -39s18.5 -39 18.5 -61c0 -36.667 -14.333 -66 -43 -88s-64 -33 -106 -33c-32 0 -61.167 7 -87.5 21s-45.166 34.333 -56.499 61l72 34c13.333 -29.333 35.666 -44 66.999 -44
c17.333 0 31.833 4.66699 43.5 14s17.5 22 17.5 38c0 17.333 -7 31 -21 41s-31.333 15 -52 15c-12 0 -23.667 -1.33301 -35 -4z" />
    <glyph glyph-name="fourinferior" unicode="&#x2084;" horiz-adv-x="344" 
d="M18 -3c40 50 96.333 125.667 169 227h93v-232h54v-70h-54v-100h-89v100h-173v75zM191 -8l0.000976562 119c-32.667 -52 -60.334 -91.667 -83.001 -119h83z" />
    <glyph glyph-name="fiveinferior" unicode="&#x2085;" horiz-adv-x="325" 
d="M282 153l-146 -0.00195312c-0.666992 -10.667 -2.66699 -38.667 -6 -84c14.667 7.33301 32 11 52 11c34 0 62.333 -12.167 85 -36.5s34 -53.5 34 -87.5c0 -40 -13.667 -73.167 -41 -99.5s-61.333 -39.5 -102 -39.5c-30.667 0 -58.5 6.66699 -83.5 20s-43.833 33 -56.5 59
l69 34c11.333 -27.333 32 -41 62 -41c18 0 32.333 5.83301 43 17.5s16 25.834 16 42.501s-5.5 30.334 -16.5 41.001s-25.167 16 -42.5 16c-20 0 -37 -8 -51 -24l-57 38c6 57.333 10.333 125.333 13 204h228v-71z" />
    <glyph glyph-name="sixinferior" unicode="&#x2086;" horiz-adv-x="344" 
d="M234 250l29.002 -72.001c-72.667 -27.333 -118.667 -66.666 -138 -117.999c20.667 14.667 44 22 70 22c36.667 0 67.167 -12.333 91.5 -37s36.5 -55.667 36.5 -93c0 -40 -13.333 -72.667 -40 -98s-60.334 -38 -101.001 -38c-48.667 0 -87.834 15.5 -117.501 46.5
s-44.5 70.5 -44.5 118.5c0 64.667 19.833 120 59.5 166s91.167 80.333 154.5 103zM113.002 -23.001c0 -26 5.16797 -47.5 15.501 -64.5s26.166 -25.5 47.499 -25.5c16.667 0 30 6 40 18s15 26.333 15 43c0 18 -5.16699 33 -15.5 45s-23.833 18 -40.5 18
c-26 0 -46.667 -11.333 -62 -34z" />
    <glyph glyph-name="seveninferior" unicode="&#x2087;" horiz-adv-x="291" 
d="M282 224l0.000976562 -52c-52.667 -110 -107.334 -232.667 -164.001 -368l-82 37c44 101.333 92.667 205 146 311h-176v72h276z" />
    <glyph glyph-name="eightinferior" unicode="&#x2088;" horiz-adv-x="352" 
d="M310 118c0 -37.333 -16.333 -65.667 -49 -85c40 -24 60 -56.667 60 -98c0 -34 -13.833 -62.333 -41.5 -85s-62.167 -34 -103.5 -34s-75.833 11.333 -103.5 34s-41.5 51 -41.5 85c0 42.667 19.667 75.334 59 98.001c-32 21.333 -48 49.666 -48 84.999
c0 32 12.5 58.667 37.5 80s57.167 32 96.5 32s71.5 -10.667 96.5 -32s37.5 -48 37.5 -80zM176 -6.00098c-15.333 0 -28 -5.16699 -38 -15.5s-15 -23.166 -15 -38.499s5.16699 -28.166 15.5 -38.499s22.833 -15.5 37.5 -15.5s27.167 5.16699 37.5 15.5
s15.5 23.166 15.5 38.499s-5 28.166 -15 38.499s-22.667 15.5 -38 15.5zM176 157.999c-12.667 0 -23.167 -4.33301 -31.5 -13s-12.5 -19.334 -12.5 -32.001c0 -13.333 4.16699 -24.666 12.5 -33.999s18.833 -14 31.5 -14s23.167 4.66699 31.5 14s12.5 20.666 12.5 33.999
c0 12.667 -4.16699 23.334 -12.5 32.001s-18.833 13 -31.5 13z" />
    <glyph glyph-name="nineinferior" unicode="&#x2089;" horiz-adv-x="344" 
d="M109 -204l-29 72.001c74 26.667 120 66 138 118c-20 -14.667 -43.333 -22 -70 -22c-36.667 0 -67.167 12.167 -91.5 36.5s-36.5 55.166 -36.5 92.499c0 40 13.5 72.833 40.5 98.5s60.833 38.5 101.5 38.5c48.667 0 87.667 -15.5 117 -46.5s44 -70.5 44 -118.5
c0 -64.667 -19.833 -120 -59.5 -166s-91.167 -80.333 -154.5 -103zM231 69.001c0 25.333 -5.33203 46.667 -15.999 64s-26.667 26 -48 26c-16.667 0 -29.834 -6 -39.501 -18s-14.5 -26.667 -14.5 -44c0 -18 5 -32.833 15 -44.5s23.333 -17.5 40 -17.5c26 0 47 11.333 63 34z
" />
    <glyph glyph-name="parenleftinferior" unicode="&#x208d;" horiz-adv-x="226" 
d="M228 -226l-33 -58.001c-114.667 70.667 -172 167.334 -172 290.001s57.333 219 172 289l34 -58c-80.667 -50.667 -121 -127.667 -121 -231c0 -104 40 -181.333 120 -232z" />
    <glyph glyph-name="parenrightinferior" unicode="&#x208e;" horiz-adv-x="226" 
d="M30 -284l-33 58c80.667 50.667 121 128 121 232c0 102 -40.333 179 -121 231l34 58c114.667 -70 172 -166.333 172 -289c0 -123.333 -57.667 -220 -173 -290z" />
    <glyph glyph-name="Euro" unicode="&#x20ac;" horiz-adv-x="650" 
d="M12 367v86h88c23.333 70 64.833 124.833 124.5 164.5s125.5 59.5 197.5 59.5c69.333 0 136.666 -19.667 201.999 -59l-54 -91c-43.333 31.333 -91.333 47 -144 47c-46.667 0 -87.167 -10.667 -121.5 -32s-60.166 -51 -77.499 -89h250v-86h-275
c-1.33301 -16 -2 -27.667 -2 -35c0 -16 0.666992 -28 2 -36h275v-85h-253c18.667 -40 45.667 -70 81 -90s75.333 -30 120 -30c58 0 108.333 17.333 151 52l64 -85c-66 -46.667 -139.333 -70 -220 -70c-73.333 0 -139.5 19.5 -198.5 58.5s-99.833 93.833 -122.5 164.5h-87v85
h70c-1.33301 16 -2 28 -2 36c0 7.33301 0.666992 19 2 35h-70z" />
    <glyph glyph-name="afii61352" unicode="&#x2116;" horiz-adv-x="1137" 
d="M931 721c52 0 95 -17 129 -51s51 -76.333 51 -127s-17 -93 -51 -127s-77 -51 -129 -51s-95 17 -129 51s-51 76.333 -51 127s17 93 51 127s77 51 129 51zM1018 543c0 30 -8 54.833 -24 74.5s-37 29.5 -63 29.5s-47 -9.83301 -63 -29.5s-24 -44.5 -24 -74.5
s8 -54.833 24 -74.5s37 -29.5 63 -29.5s47 9.83301 63 29.5s24 44.5 24 74.5zM666 0h-111l-346 473v-473h-124v700h109l348 -474v474h124v-700z" />
    <glyph glyph-name="trademark" unicode="&#x2122;" horiz-adv-x="982" 
d="M358 623h-98v-341h-91v341h-97v77h286v-77zM820 589l-125 -307h-66l-123 308v-308h-90v418h138l108 -280l112 280h136v-418h-90v307z" />
    <glyph glyph-name="Omega" unicode="&#x2126;" horiz-adv-x="794" 
d="M17 100h177c-48 35.333 -84.5 77.5 -109.5 126.5s-37.5 100.167 -37.5 153.5c0 95.333 33 174.5 99 237.5s149.667 94.5 251 94.5s185 -31.5 251 -94.5s99 -142.167 99 -237.5c0 -53.333 -12.5 -104.5 -37.5 -153.5s-61.5 -91.167 -109.5 -126.5h177v-100h-332v110
c53.333 19.333 95.333 53.833 126 103.5s46 103.167 46 160.5c0 66 -19.833 120.667 -59.5 164s-93.167 65 -160.5 65s-120.833 -21.667 -160.5 -65s-59.5 -98 -59.5 -164c0 -57.333 15.333 -110.833 46 -160.5s72.667 -84.167 126 -103.5v-110h-332v100z" />
    <glyph glyph-name="onethird" unicode="&#x2153;" horiz-adv-x="806" 
d="M586 715l64 -47l-498 -683l-64 47zM234 338h-86.001v268c-23.333 -12 -41.666 -20.333 -54.999 -25v79c30 14.667 56 28 78 40h63v-362zM547.999 150l-1.00391 66.001c19.333 0 33 1.33301 41 4c24 5.33301 36 18.666 36 39.999c0 10.667 -4 19.667 -12 27
s-18.667 11 -32 11c-23.333 0 -37.666 -11.667 -42.999 -35l-69 32c8 22.667 22.333 40.334 43 53.001s44.334 19 71.001 19c34.667 0 64.5 -8.83301 89.5 -26.5s37.5 -40.834 37.5 -69.501c0 -34 -15.667 -60 -47 -78c19.333 -6.66699 34.833 -18.167 46.5 -34.5
s17.5 -34.833 17.5 -55.5c0 -34 -13.167 -60.833 -39.5 -80.5s-57.833 -29.5 -94.5 -29.5c-63.333 0 -106.666 25.333 -129.999 76l69 31c10.667 -25.333 30.334 -38 59.001 -38c13.333 0 24.833 3.83301 34.5 11.5s14.5 18.5 14.5 32.5c0 15.333 -5.83301 27 -17.5 35
s-27.167 12 -46.5 12c-8.66699 0 -17.667 -1 -27 -3z" />
    <glyph glyph-name="twothirds" unicode="&#x2154;" horiz-adv-x="901" 
d="M681 715l65 -47l-498 -683l-65 47zM87 401c48 44 90 89.0029 126 135.003c18.667 23.333 28 45.666 28 66.999c0 10.667 -3.5 19.167 -10.5 25.5s-16.167 9.5 -27.5 9.5c-12 0 -21.667 -4.16699 -29 -12.5s-11 -19.833 -11 -34.5l-83 14
c2 31.333 14.833 56.166 38.5 74.499s52.5 27.5 86.5 27.5c33.333 0 62.333 -9.33301 87 -28s37 -43.334 37 -74.001c0 -30 -13 -62.667 -39 -98c-21.333 -28 -51 -60.333 -89 -97h140v-70h-254v61zM643 150.003l-1.00391 66.001c19.333 0 33 1.33301 41 4
c24 5.33301 36 18.666 36 39.999c0 10.667 -4 19.667 -12 27s-18.667 11 -32 11c-23.333 0 -37.666 -11.667 -42.999 -35l-69 32c8 22.667 22.333 40.334 43 53.001s44.334 19 71.001 19c35.333 0 65.333 -8.83301 90 -26.5s37 -40.834 37 -69.501
c0 -34 -15.667 -60 -47 -78c19.333 -6.66699 34.833 -18.167 46.5 -34.5s17.5 -34.833 17.5 -55.5c0 -34 -13.167 -60.833 -39.5 -80.5s-57.833 -29.5 -94.5 -29.5c-63.333 0 -106.666 25.333 -129.999 76l69 31c10.667 -25.333 30.334 -38 59.001 -38
c13.333 0 24.833 3.83301 34.5 11.5s14.5 18.5 14.5 32.5c0 15.333 -5.83301 27 -17.5 35s-27.167 12 -46.5 12c-9.33301 0 -18.333 -1 -27 -3z" />
    <glyph glyph-name="oneeighth" unicode="&#x215b;" horiz-adv-x="818" 
d="M586 715l64 -47l-498 -683l-64 47zM738 102c0 -32 -13.168 -57.999 -39.501 -77.999s-58.166 -30 -95.499 -30s-69 10 -95 30s-39 46 -39 78c0 39.333 18.333 68.666 55 87.999c-29.333 19.333 -44 45 -44 77c0 28.667 11.5 52.834 34.5 72.501s52.5 29.5 88.5 29.5
c36.667 0 66.5 -9.83301 89.5 -29.5s34.5 -43.834 34.5 -72.501c0 -31.333 -14.667 -57 -44 -77c36.667 -18.667 55 -48 55 -88zM561.999 263.001c0 -11.333 4 -20.833 12 -28.5s17.667 -11.5 29 -11.5s21 3.83301 29 11.5s12 17.167 12 28.5c0 10.667 -4 19.834 -12 27.501
s-17.667 11.5 -29 11.5s-21 -3.83301 -29 -11.5s-12 -16.834 -12 -27.501zM554.999 106.001c0 -12.667 4.66699 -23.5 14 -32.5s20.666 -13.5 33.999 -13.5c14 0 25.5 4.33301 34.5 13s13.5 19.667 13.5 33s-4.5 24.333 -13.5 33s-20.5 13 -34.5 13
c-13.333 0 -24.666 -4.5 -33.999 -13.5s-14 -19.833 -14 -32.5zM233.999 338.001h-86.001v268c-23.333 -12 -41.666 -20.333 -54.999 -25v79c30 14.667 56 28 78 40h63v-362z" />
    <glyph glyph-name="threeeighths" unicode="&#x215c;" horiz-adv-x="891" 
d="M660 715l64 -47l-498 -683l-64 47zM166 490l-1.00391 66.001c19.333 0 33 1.33301 41 4c24 5.33301 36 18.666 36 39.999c0 10.667 -4 19.667 -12 27s-18.667 11 -32 11c-23.333 0 -37.666 -11.667 -42.999 -35l-69 32c8 22.667 22.333 40.334 43 53.001
s44.334 19 71.001 19c34.667 0 64.5 -8.83301 89.5 -26.5s37.5 -40.834 37.5 -69.501c0 -34 -15.667 -60 -47 -78c19.333 -6.66699 34.833 -18.167 46.5 -34.5s17.5 -34.833 17.5 -55.5c0 -34 -13.167 -60.833 -39.5 -80.5s-57.833 -29.5 -94.5 -29.5
c-63.333 0 -106.666 25.333 -129.999 76l69 31c10.667 -25.333 30.334 -38 59.001 -38c13.333 0 24.833 3.83301 34.5 11.5s14.5 18.5 14.5 32.5c0 15.333 -5.83301 27 -17.5 35s-27.167 12 -46.5 12c-8.66699 0 -17.667 -1 -27 -3zM811.996 102.001
c0 -32 -13.168 -57.999 -39.501 -77.999s-58.166 -30 -95.499 -30s-69 10 -95 30s-39 46 -39 78c0 39.333 18.333 68.666 55 87.999c-29.333 19.333 -44 45 -44 77c0 28.667 11.5 52.834 34.5 72.501s52.5 29.5 88.5 29.5c36.667 0 66.5 -9.83301 89.5 -29.5
s34.5 -43.834 34.5 -72.501c0 -31.333 -14.667 -57 -44 -77c36.667 -18.667 55 -48 55 -88zM635.995 263.002c0 -11.333 4 -20.833 12 -28.5s17.667 -11.5 29 -11.5s21 3.83301 29 11.5s12 17.167 12 28.5c0 10.667 -4 19.834 -12 27.501s-17.667 11.5 -29 11.5
s-21 -3.83301 -29 -11.5s-12 -16.834 -12 -27.501zM628.995 106.002c0 -12.667 4.66699 -23.5 14 -32.5s20.666 -13.5 33.999 -13.5c14 0 25.5 4.33301 34.5 13s13.5 19.667 13.5 33s-4.5 24.333 -13.5 33s-20.5 13 -34.5 13c-13.333 0 -24.666 -4.5 -33.999 -13.5
s-14 -19.833 -14 -32.5z" />
    <glyph glyph-name="fiveeighths" unicode="&#x215d;" horiz-adv-x="880" 
d="M648 715l65 -47l-498 -683l-64 47zM321 629h-130.998c-0.666992 -18 -2.33398 -41 -5.00098 -69c12.667 7.33301 28 11 46 11c31.333 0 57.166 -11 77.499 -33s30.5 -48.333 30.5 -79c0 -36 -12.5 -66 -37.5 -90s-55.833 -36 -92.5 -36
c-61.333 0 -104.333 23.667 -129 71l69 34c9.33301 -24 27.333 -36 54 -36c15.333 0 27.333 5 36 15s13 22.333 13 37c0 14 -4.66699 25.5 -14 34.5s-21.333 13.5 -36 13.5c-18 0 -32.667 -7 -44 -21l-55 35c4 44.667 7.66699 106 11 184h207v-71zM800.002 102
c0 -32 -13.168 -57.999 -39.501 -77.999s-58.166 -30 -95.499 -30s-69 10 -95 30s-39 46 -39 78c0 39.333 18.333 68.666 55 87.999c-29.333 19.333 -44 45 -44 77c0 28.667 11.5 52.834 34.5 72.501s52.5 29.5 88.5 29.5c36.667 0 66.5 -9.83301 89.5 -29.5
s34.5 -43.834 34.5 -72.501c0 -31.333 -14.667 -57 -44 -77c36.667 -18.667 55 -48 55 -88zM624.001 263.001c0 -11.333 4 -20.833 12 -28.5s17.667 -11.5 29 -11.5s21 3.83301 29 11.5s12 17.167 12 28.5c0 10.667 -4 19.834 -12 27.501s-17.667 11.5 -29 11.5
s-21 -3.83301 -29 -11.5s-12 -16.834 -12 -27.501zM617.001 106.001c0 -12.667 4.66699 -23.5 14 -32.5s20.666 -13.5 33.999 -13.5c14 0 25.5 4.33301 34.5 13s13.5 19.667 13.5 33s-4.5 24.333 -13.5 33s-20.5 13 -34.5 13c-13.333 0 -24.666 -4.5 -33.999 -13.5
s-14 -19.833 -14 -32.5z" />
    <glyph glyph-name="seveneighths" unicode="&#x215e;" horiz-adv-x="820" 
d="M588 715l65 -47l-498 -683l-64 47zM342 649c-48 -95.333 -98 -204.667 -150 -328l-78 35c32 74.667 75.667 165.667 131 273h-159v71h256v-51zM740 101.999c0 -32 -13.168 -57.999 -39.501 -77.999s-58.166 -30 -95.499 -30s-69 10 -95 30s-39 46 -39 78
c0 39.333 18.333 68.666 55 87.999c-29.333 19.333 -44 45 -44 77c0 28.667 11.5 52.834 34.5 72.501s52.5 29.5 88.5 29.5c36.667 0 66.5 -9.83301 89.5 -29.5s34.5 -43.834 34.5 -72.501c0 -31.333 -14.667 -57 -44 -77c36.667 -18.667 55 -48 55 -88zM563.999 263
c0 -11.333 4 -20.833 12 -28.5s17.667 -11.5 29 -11.5s21 3.83301 29 11.5s12 17.167 12 28.5c0 10.667 -4 19.834 -12 27.501s-17.667 11.5 -29 11.5s-21 -3.83301 -29 -11.5s-12 -16.834 -12 -27.501zM556.999 106c0 -12.667 4.66699 -23.5 14 -32.5
s20.666 -13.5 33.999 -13.5c14 0 25.5 4.33301 34.5 13s13.5 19.667 13.5 33s-4.5 24.333 -13.5 33s-20.5 13 -34.5 13c-13.333 0 -24.666 -4.5 -33.999 -13.5s-14 -19.833 -14 -32.5z" />
    <glyph glyph-name="uni2192" unicode="&#x2192;" horiz-adv-x="962" 
d="M64 217v94h657l-182 179l66 65l293 -291l-293 -292l-66 66l182 179h-657z" />
    <glyph glyph-name="uni2194" unicode="&#x2194;" horiz-adv-x="1170" 
d="M423 490l-183 -179h689l-183 179l66 65l294 -291l-294 -292l-66 66l183 179h-689l183 -179l-66 -66l-293 292l293 291z" />
    <glyph glyph-name="uni21D2" unicode="&#x21d2;" horiz-adv-x="1005" 
d="M689 385l-108 105l66 65l294 -291l-294 -292l-66 66l108 105h-625v92h717l30 29l-30 29h-717v92h625z" />
    <glyph glyph-name="uni21D4" unicode="&#x21d4;" horiz-adv-x="1233" 
d="M918 385l-107 105l66 65l293 -291l-293 -292l-66 66l107 105h-602l107 -105l-66 -66l-293 292l293 291l66 -65l-108 -105h603zM222 293l-29 -29l29 -29h789l30 29l-30 29h-789z" />
    <glyph glyph-name="uni21FD" unicode="&#x21fd;" horiz-adv-x="962" 
d="M377 -43l-313 307l313 306v-259h521v-94h-521v-260zM287 357l-95 -93l95 -95v188z" />
    <glyph glyph-name="uni21FE" unicode="&#x21fe;" horiz-adv-x="961" 
d="M897 264l-313 -307v260h-520v94h520v259zM769 264l-95 93v-188z" />
    <glyph glyph-name="uni21FF" unicode="&#x21ff;" horiz-adv-x="1233" 
d="M1169 264l-313 -307v260h-479v-260l-313 307l313 306v-259h479v259zM287 357l-95 -93l95 -95v188zM1041 264l-95 93v-188z" />
    <glyph glyph-name="uni2200" unicode="&#x2200;" horiz-adv-x="674" 
d="M13 700h143l49 -138h270l49 138h137l-280 -700h-103zM338 188l98 270h-194l95 -270h1z" />
    <glyph glyph-name="partialdiff" unicode="&#x2202;" 
d="M28 689l39.999 99c70.667 -29.333 133.5 -61 188.5 -95s105 -72.5 150 -115.5s79.5 -91.667 103.5 -146s36 -112.833 36 -175.5c0 -77.333 -25.167 -141.333 -75.5 -192s-116.5 -76 -198.5 -76c-75.333 0 -138.5 27 -189.5 81s-76.5 117.667 -76.5 191
c0 70 24.5 130 73.5 180s109.167 75 180.5 75c18.667 0 38.334 -3 59.001 -9c-57.333 64 -154.333 125 -291 183zM397.999 390c-28.667 14 -59.667 21 -93 21c-53.333 0 -96.333 -12.833 -129 -38.5s-49 -62.5 -49 -110.5c0 -46 14.167 -85.833 42.5 -119.5
s64.833 -50.5 109.5 -50.5c44 0 79.5 15.333 106.5 46s40.5 68 40.5 112c0 50 -9.33301 96.667 -28 140z" />
    <glyph glyph-name="uni2203" unicode="&#x2203;" horiz-adv-x="580" 
d="M58 700h437v-700h-437v106h313v180h-313v107h313v201h-313v106z" />
    <glyph glyph-name="uni2204" unicode="&#x2204;" horiz-adv-x="580" 
d="M58 700h235l25 85l87 -23l-18 -62h108v-700h-309l-23 -82l-87 23l17 59h-35v106h65l52 180h-117v107h148l57 201h-205v106zM371 286h-102l-52 -180h154v180zM371 594h-15l-57 -201h72v201z" />
    <glyph glyph-name="Delta" unicode="&#x2206;" horiz-adv-x="633" 
d="M638 0h-643l271 700h104zM459 106l-145 397h-1l-145 -397h291z" />
    <glyph glyph-name="uni2208" unicode="&#x2208;" 
d="M495 0l-125 0.000976562c-111.333 0 -193.666 23.167 -246.999 69.5s-80 109.166 -80 188.499c0 78.667 26.667 141.167 80 187.5s135.666 69.5 246.999 69.5h125v-101h-147c-50.667 0 -91.167 -9.66699 -121.5 -29s-50.166 -45 -59.499 -77h328v-101h-328
c9.33301 -32 29.166 -57.667 59.499 -77s70.833 -29 121.5 -29h147v-101z" />
    <glyph glyph-name="uni2209" unicode="&#x2209;" 
d="M462 620l-30 -105h63v-101h-92l-30 -106h122v-101h-151l-30 -104c14.667 -1.33301 26 -2 34 -2h147v-101h-125c-28 0 -56 1.66699 -84 5l-38 -133l-88 23l38 132c-103.333 39.333 -155 116.333 -155 231c0 75.333 24 135.833 72 181.5s122.333 70.5 223 74.5l37 129z
M308 412c-76 -10 -123 -44.667 -141 -104h112zM167 207c10 -33.333 30 -59.333 60 -78l22 78h-82z" />
    <glyph glyph-name="product" unicode="&#x220f;" 
d="M550 470h-88v-470h-122v470h-130v-470h-121v470h-89v104h550v-104z" />
    <glyph glyph-name="summation" unicode="&#x2211;" 
d="M410 365l-202 -259h331v-106h-527v64l244 298l-233 273v65h492v-106h-300z" />
    <glyph glyph-name="minus" unicode="&#x2212;" 
d="M41 362h467v-102h-467v102z" />
    <glyph glyph-name="uni2215" unicode="&#x2215;" horiz-adv-x="388" 
d="M392 725l-291 -784l-101 40l291 784z" />
    <glyph glyph-name="uni2219" unicode="&#x2219;" 
d="M341 245h-133v135h133v-135z" />
    <glyph glyph-name="radical" unicode="&#x221a;" 
d="M561 750l-242 -750h-116l-123 413h-82v102h183l84 -331h2l167 566h127z" />
    <glyph glyph-name="infinity" unicode="&#x221e;" horiz-adv-x="778" 
d="M742 249c0 -47.333 -16.499 -87.833 -49.499 -121.5s-73.167 -50.5 -120.5 -50.5c-57.333 0 -119.333 36 -186 108c-36 -37.333 -67.333 -64.666 -94 -81.999s-55.334 -26 -86.001 -26c-48 0 -88.333 17 -121 51s-49 75 -49 123s16.5 88.833 49.5 122.5
s73.167 50.5 120.5 50.5c56 0 118 -36 186 -108c34.667 36.667 65.667 63.667 93 81s56.333 26 87 26c48 0 88.333 -16.833 121 -50.5s49 -74.834 49 -123.501zM563.001 177c18.667 0 33.833 7.16699 45.5 21.5s17.5 31.5 17.5 51.5c0 19.333 -6 36.5 -18 51.5
s-27 22.5 -45 22.5c-23.333 0 -58.333 -24.667 -105 -74c46 -48.667 81 -73 105 -73zM215 324c-18.667 0 -33.833 -7.16699 -45.5 -21.5s-17.5 -31.5 -17.5 -51.5c0 -19.333 6 -36.5 18 -51.5s27 -22.5 45 -22.5c23.333 0 58.333 24.667 105 74c-46 48.667 -81 73 -105 73z
" />
    <glyph glyph-name="uni2229" unicode="&#x2229;" 
d="M500 224v-224h-101v258c0 112 -41.333 168 -124 168s-124 -56 -124 -168v-258h-101v224c0 202 75 303 225 303s225 -101 225 -303z" />
    <glyph glyph-name="uni222A" unicode="&#x222a;" 
d="M50 291v224h101v-258c0 -112 41.333 -168 124 -168s124 56 124 168v258h101v-224c0 -202 -75 -303 -225 -303s-225 101 -225 303z" />
    <glyph glyph-name="integral" unicode="&#x222b;" 
d="M504 735l-33 -95.999c-22.667 12 -44.667 18 -66 18c-22 0 -38.667 -5 -50 -15c-10 -10.667 -16 -38.334 -18 -83.001l-25 -591c-3.33301 -70 -20 -120 -50 -150c-26 -26 -63 -39 -111 -39c-28.667 0 -64 9 -106 27l33 96c24 -12.667 43.333 -19 58 -19
c17.333 0 31 5.33301 41 16c8.66699 11.333 14 39 16 83l25 591c3.33301 68.667 19 118 47 148c27.333 27.333 67.333 41 120 41c37.333 0 77 -9 119 -27z" />
    <glyph glyph-name="uni2234" unicode="&#x2234;" 
d="M191 0h-134v136h134v-136zM493 0h-133v136h133v-136zM342 264h-133v136h133v-136z" />
    <glyph glyph-name="approxequal" unicode="&#x2248;" 
d="M439 473l71 -52c-13.333 -30 -32.5 -53.333 -57.5 -70s-53.833 -25 -86.5 -25c-25.333 0 -57.333 8.5 -96 25.5s-67 25.5 -85 25.5c-32 0 -56.667 -14.667 -74 -44l-71 52c13.333 30 32.5 53.333 57.5 70s53.833 25 86.5 25c25.333 0 57.333 -8.5 96 -25.5
s67 -25.5 85 -25.5c31.333 0 56 14.667 74 44zM439 291l71 -52c-13.333 -30 -32.5 -53.333 -57.5 -70s-53.833 -25 -86.5 -25c-25.333 0 -57.333 8.5 -96 25.5s-67 25.5 -85 25.5c-31.333 0 -56 -14.667 -74 -44l-71 52c13.333 30 32.5 53.333 57.5 70s53.833 25 86.5 25
c25.333 0 57.333 -8.5 96 -25.5s67 -25.5 85 -25.5c31.333 0 56 14.667 74 44z" />
    <glyph glyph-name="notequal" unicode="&#x2260;" 
d="M41 271h145l53 80h-198v98h265l96 143l76 -52l-62 -91h92v-98h-158l-53 -80h211v-98h-279l-94 -141l-75 53l59 88h-78v98z" />
    <glyph glyph-name="lessequal" unicode="&#x2264;" 
d="M17 346v90l515 205v-102l-373 -148l373 -149v-102zM17 98h515v-98h-515v98z" />
    <glyph glyph-name="greaterequal" unicode="&#x2265;" 
d="M532 436v-90l-515 -206v102l373 149l-373 148v102zM17 98h515v-98h-515v98z" />
    <glyph glyph-name="uni2282" unicode="&#x2282;" 
d="M495 0h-125c-111.333 0 -193.666 23.167 -246.999 69.5s-80 109.166 -80 188.499c0 78.667 26.667 141.167 80 187.5s135.666 69.5 246.999 69.5h125v-101h-147c-64 0 -111.667 -14.667 -143 -44s-47 -66.666 -47 -111.999c0 -46 15.667 -83.667 47 -113s79 -44 143 -44
h147v-101z" />
    <glyph glyph-name="uni2283" unicode="&#x2283;" 
d="M180 0h-125v101h147c64 0 111.667 14.667 143 44s47 67 47 113c0 45.333 -15.667 82.666 -47 111.999s-79 44 -143 44h-147v101h125c111.333 0 193.666 -23.167 246.999 -69.5s80 -108.833 80 -187.5c0 -79.333 -26.667 -142.166 -80 -188.499
s-135.666 -69.5 -246.999 -69.5z" />
    <glyph glyph-name="uni2284" unicode="&#x2284;" 
d="M462 620l-30 -105h63v-101h-92l-89 -311c14.667 -1.33301 26 -2 34 -2h147v-101h-125c-28 0 -56 1.66699 -84 5l-38 -133l-88 23l38 132c-103.333 39.333 -155 116.333 -155 231c0 75.333 24 135.833 72 181.5s122.333 70.5 223 74.5l37 129zM158 258
c0 -58 23.001 -101 69.001 -129l81 283c-50.667 -6 -88.334 -23.167 -113.001 -51.5s-37 -62.5 -37 -102.5z" />
    <glyph glyph-name="uni2285" unicode="&#x2285;" 
d="M390 620l-39 -131c104 -40 156 -117 156 -231c0 -75.333 -24.167 -136 -72.5 -182s-122.5 -71 -222.5 -75l-37 -129l-87 23l30 105h-63v101h92l88 311c-13.333 1.33301 -24.333 2 -33 2h-147v101h125c30 0 58 -2 84 -6l38 134zM392 258c0 58 -23.333 100.667 -70 128
l-81 -282c51.333 6 89.333 23 114 51s37 62.333 37 103z" />
    <glyph glyph-name="uni2286" unicode="&#x2286;" 
d="M495 179h-125c-111.333 0 -193.666 23.167 -246.999 69.5s-80 108.833 -80 187.5c0 79.333 26.667 142.166 80 188.499s135.666 69.5 246.999 69.5h125v-101h-147c-64 0 -111.667 -14.667 -143 -44s-47 -67 -47 -113c0 -45.333 15.667 -82.666 47 -111.999
s79 -44 143 -44h147v-101zM60 0v102h435v-102h-435z" />
    <glyph glyph-name="uni2287" unicode="&#x2287;" 
d="M180 179h-125v101h147c64 0 111.667 14.667 143 44s47 66.666 47 111.999c0 46 -15.667 83.667 -47 113s-79 44 -143 44h-147v101h125c111.333 0 193.666 -23.167 246.999 -69.5s80 -109.166 80 -188.499c0 -78.667 -26.667 -141.167 -80 -187.5
s-135.666 -69.5 -246.999 -69.5zM55 0v102h435v-102h-435z" />
    <glyph glyph-name="uni22C4" unicode="&#x22c4;" 
d="M275 -67l-203 317l203 317l202 -317zM180 250l95 -150l95 150l-95 149z" />
    <glyph glyph-name="triangle" unicode="&#x25b3;" horiz-adv-x="398" 
d="M368 286l-308 -175v348z" />
    <glyph glyph-name="lozenge" unicode="&#x25ca;" 
d="M28 350l196 350h103l196 -350l-196 -350h-103zM406 350l-131 235l-131 -235l131 -235z" />
    <glyph glyph-name="circle" unicode="&#x25cb;" horiz-adv-x="366" 
d="M35 289c0 40.667 14.5 75.5 43.5 104.5s63.833 43.5 104.5 43.5s75.5 -14.5 104.5 -43.5s43.5 -63.833 43.5 -104.5s-14.5 -75.5 -43.5 -104.5s-63.833 -43.5 -104.5 -43.5s-75.5 14.5 -104.5 43.5s-43.5 63.833 -43.5 104.5z" />
    <glyph glyph-name="uni25FB" unicode="&#x25fb;" 
d="M91 398h368v-368h-368v368zM184 305v-182h182v182h-182z" />
    <glyph glyph-name="commainferior" unicode="&#xf6e1;" horiz-adv-x="165" 
d="M131 -89l-44 -164h-78l33 164h89z" />
    <glyph glyph-name="commasuperior" unicode="&#xf6e2;" horiz-adv-x="165" 
d="M131 456l-44 -164h-78l33 164h89z" />
    <glyph glyph-name="hypheninferior" unicode="&#xf6e5;" horiz-adv-x="277" 
d="M219 -41h-161v70h161v-70z" />
    <glyph glyph-name="hyphensuperior" unicode="&#xf6e6;" horiz-adv-x="277" 
d="M219 504h-161v70h161v-70z" />
    <glyph glyph-name="periodinferior" unicode="&#xf6e7;" horiz-adv-x="156" 
d="M122 -178h-89v88h89v-88z" />
    <glyph glyph-name="periodsuperior" unicode="&#xf6e8;" horiz-adv-x="156" 
d="M122 367h-89v88h89v-88z" />
    <glyph glyph-name="s_t" unicode="&#xfb06;" horiz-adv-x="830" 
d="M412 464l-68 -73.999c-30 26.667 -64 40 -102 40c-18 0 -32.667 -4.5 -44 -13.5s-17 -21.167 -17 -36.5c0 -10.667 4.83301 -20.834 14.5 -30.501s19.5 -17 29.5 -22s25 -11.5 45 -19.5c22 -8.66699 39.5 -16.334 52.5 -23.001s28.167 -16.167 45.5 -28.5
s30.333 -27.166 39 -44.499s13 -37.333 13 -60c0 -54 -18.667 -94.833 -56 -122.5s-83.333 -41.5 -138 -41.5c-78.667 0 -143.667 28.333 -195 85l74 70c38.667 -38.667 78 -58 118 -58c20.667 0 38.667 5 54 15s23 24.667 23 44c0 11.333 -5.5 22 -16.5 32
s-21.667 17.5 -32 22.5s-26.166 11.833 -47.499 20.5c-20 8 -36.167 15.333 -48.5 22s-26.5 16 -42.5 28s-28 26.5 -36 43.5s-12 36.5 -12 58.5c0 50 17.167 88.5 51.5 115.5s76.166 40.5 125.499 40.5c68 0 124.667 -21 170 -63zM804 413.001h-136.001v-213
c0 -18 0.333008 -32.333 1 -43c4 -42 22.667 -63 56 -63c20.667 0 39.667 4.66699 57 14l36 -92c-32 -18 -69.333 -27 -112 -27c-37.333 0 -68.666 8.66699 -93.999 26s-43 41.333 -53 72c-8.66699 23.333 -13 55 -13 95v231h-64v102h64l13 118h109v-118h136v-102z" />
    <glyph glyph-name="nonmarkingreturn" horiz-adv-x="333" 
 />
    <glyph glyph-name="M.salt" horiz-adv-x="842" 
d="M460 149h-79l-175 355v-504h-121v700h153l182 -378h2l183 378h152v-700h-121v506z" />
    <glyph glyph-name="trademark.salt" horiz-adv-x="881" 
d="M416 700h106l98 -205l99 205h104v-418h-90v256l-86 -174h-55l-86 172v-254h-90v418zM358 623h-98v-341h-91v341h-97v77h286v-77z" />
    <glyph glyph-name="hyphen.case" horiz-adv-x="452" 
d="M363 289h-274v103h274v-103z" />
    <glyph glyph-name="zero.lf" horiz-adv-x="557" 
d="M278 677c77.333 0 137.166 -30.5 179.499 -91.5s63.5 -145.5 63.5 -253.5c0 -107.333 -21.167 -191.5 -63.5 -252.5s-102.166 -91.5 -179.499 -91.5c-76.667 0 -136.167 30.5 -178.5 91.5s-63.5 145.167 -63.5 252.5c0 108 21.167 192.5 63.5 253.5
s101.833 91.5 178.5 91.5zM278 570c-78.667 0 -118 -79.333 -118 -238c0 -78.667 10.167 -138 30.5 -178s49.5 -60 87.5 -60c79.333 0 119 79.333 119 238s-39.667 238 -119 238z" />
    <glyph glyph-name="one.lf" horiz-adv-x="353" 
d="M268 0h-122v522c-12 -6 -30.167 -14 -54.5 -24s-38.5 -16 -42.5 -18v111c46.667 23.333 93 48 139 74h80v-665z" />
    <glyph glyph-name="two.lf" horiz-adv-x="518" 
d="M492 104l-0.000976562 -104h-436v97c92 96 168.333 186.333 229 271c36 52 54 94 54 126c0 24 -8.66699 43 -26 57s-38.333 21 -63 21c-25.333 0 -46.166 -8.83301 -62.499 -26.5s-24.833 -41.167 -25.5 -70.5l-121 21c4.66699 53.333 27.667 96.833 69 130.5
s89.333 50.5 144 50.5c56.667 0 105.667 -16.667 147 -50s62 -77 62 -131c0 -57.333 -23.333 -119 -70 -185c-41.333 -58.667 -99.333 -127.667 -174 -207h273z" />
    <glyph glyph-name="three.lf" horiz-adv-x="529" 
d="M167 285l-0.00195312 107.999c34 0 62.333 2.66699 85 8c23.333 6 42 16.833 56 32.5s21 34.167 21 55.5c0 24 -8.66699 43.833 -26 59.5s-40.333 23.5 -69 23.5c-22.667 0 -42.167 -6.16699 -58.5 -18.5s-27.5 -29.5 -33.5 -51.5l-103 45
c13.333 40 37.833 71.667 73.5 95s76.5 35 122.5 35c61.333 0 112.833 -16.333 154.5 -49s62.5 -75.667 62.5 -129c0 -28.667 -7.5 -56.167 -22.5 -82.5s-34.833 -46.166 -59.5 -59.499c34 -12 61.5 -33 82.5 -63s31.5 -63.667 31.5 -101
c0 -62.667 -22.333 -112.5 -67 -149.5s-99.667 -55.5 -165 -55.5c-47.333 0 -91.166 11.167 -131.499 33.5s-70.166 53.833 -89.499 94.5l100 50c23.333 -48.667 62.666 -73 117.999 -73c30.667 0 56.667 8.33301 78 25s32 40.334 32 71.001
c0 31.333 -12.167 56.166 -36.5 74.499s-55.166 27.5 -92.499 27.5c-22.667 0 -43.667 -2 -63 -6z" />
    <glyph glyph-name="four.lf" horiz-adv-x="547" 
d="M432 0h-120v164h-289v113l287 388h122v-397h96v-104h-96v-164zM153 268h159v234c-72 -109.333 -125 -187.333 -159 -234z" />
    <glyph glyph-name="five.lf" horiz-adv-x="509" 
d="M448 665l0.00390625 -105h-240c-2 -52 -5.66699 -104.333 -11 -157c25.333 11.333 54 17 86 17c55.333 0 102 -19.833 140 -59.5s57 -87.834 57 -144.501c0 -65.333 -21.667 -119.666 -65 -162.999s-98 -65 -164 -65c-46.667 0 -90 10.833 -130 32.5
s-70 51.834 -90 90.501l101 53c21.333 -47.333 58.666 -71 111.999 -71c34 0 61.167 11.167 81.5 33.5s30.5 49.833 30.5 82.5c0 31.333 -10.333 57 -31 77s-47.334 30 -80.001 30c-38.667 0 -69.334 -13.667 -92.001 -41l-82 53
c9.33301 99.333 16.666 211.666 21.999 336.999h355z" />
    <glyph glyph-name="six.lf" horiz-adv-x="546" 
d="M378 705l44.0029 -99.001c-62.667 -28 -114.5 -59.833 -155.5 -95.5s-70.167 -79.5 -87.5 -131.5c35.333 32 78 48 128 48c59.333 0 108.166 -20.5 146.499 -61.5s57.5 -91.167 57.5 -150.5c0 -64 -21 -117.833 -63 -161.5s-95.333 -65.5 -160 -65.5
c-76.667 0 -137.834 26.333 -183.501 79s-68.5 116.334 -68.5 191.001c0 102 32.167 192 96.5 270s146.166 137 245.499 177zM158.003 255.999c0 -47.333 10 -86.501 30 -117.501s51 -46.5 93 -46.5c32 0 57.667 11.333 77 34s29 50.667 29 84c0 34.667 -10 62.5 -30 83.5
s-46 31.5 -78 31.5c-24 0 -47 -6.16699 -69 -18.5s-39.333 -29.166 -52 -50.499z" />
    <glyph glyph-name="seven.lf" horiz-adv-x="467" 
d="M449 665l-0.00195312 -81c-97.333 -203.333 -188.666 -407.333 -273.999 -612l-111 51c26.667 62.667 55.834 128 87.501 196s64.5 137.167 98.5 207.5s55.333 114.5 64 132.5h-304v106h439z" />
    <glyph glyph-name="eight.lf" horiz-adv-x="563" 
d="M413 350c66.667 -38.667 99.999 -93.334 99.999 -164.001c0 -56 -21.667 -103 -65 -141s-99 -57 -167 -57c-67.333 0 -122.666 19 -165.999 57s-65 85 -65 141c0 70.667 33.333 125.334 100 164.001c-53.333 32.667 -80 80.334 -80 143.001c0 52 19.667 95.667 59 131
s90 53 152 53c62.667 0 113.667 -17.667 153 -53s59 -79 59 -131c0 -62.667 -26.667 -110.334 -80 -143.001zM280.999 294c-30 0 -55.501 -9.83301 -76.501 -29.5s-31.5 -43.5 -31.5 -71.5c0 -29.333 10.333 -53.5 31 -72.5s46.334 -28.5 77.001 -28.5s56.5 9.5 77.5 28.5
s31.5 43.167 31.5 72.5c0 28 -10.5 51.833 -31.5 71.5s-46.833 29.5 -77.5 29.5zM280.998 573c-26 0 -47.667 -8.16699 -65 -24.5s-26 -37.166 -26 -62.499s8.66699 -46.5 26 -63.5s39 -25.5 65 -25.5c26.667 0 48.667 8.5 66 25.5s26 38.167 26 63.5
s-8.66699 46.166 -26 62.499s-39.333 24.5 -66 24.5z" />
    <glyph glyph-name="nine.lf" horiz-adv-x="546" 
d="M169 -40l-44.0029 99.001c62.667 28 114.5 59.833 155.5 95.5s70.167 79.5 87.5 131.5c-35.333 -32 -78 -48 -128 -48c-59.333 0 -108.166 20.5 -146.499 61.5s-57.5 91.167 -57.5 150.5c0 64 21 117.833 63 161.5s95.333 65.5 160 65.5
c76.667 0 137.834 -26.333 183.501 -79s68.5 -116.334 68.5 -191.001c0 -102 -32.167 -192 -96.5 -270s-146.166 -137 -245.499 -177zM388.997 409.001c0 47.333 -10 86.501 -30 117.501s-51 46.5 -93 46.5c-32 0 -57.667 -11.333 -77 -34s-29 -50.667 -29 -84
c0 -34.667 10 -62.5 30 -83.5s46 -31.5 78 -31.5c24 0 47 6.16699 69 18.5s39.333 29.166 52 50.499z" />
    <glyph glyph-name="dollar.lf" 
d="M18 96l80.002 75.9951c55.333 -54 109.666 -81 162.999 -81c38 0 68.833 8.33301 92.5 25s35.5 41 35.5 73c0 7.33301 -0.833008 14.333 -2.5 21s-4.5 12.834 -8.5 18.501s-7.66699 10.667 -11 15s-9 8.83301 -17 13.5s-14 8.33398 -18 11.001
s-11.5 6.33398 -22.5 11.001s-18.667 7.83398 -23 9.50098s-13 4.83398 -26 9.50098s-21.5 7.66699 -25.5 9c-26 9.33301 -47.333 18 -64 26s-34.334 19.167 -53.001 33.5s-32.667 31.833 -42 52.5s-14 44.667 -14 72c0 52.667 17.167 95.334 51.5 128.001
s78.5 51.334 132.5 56.001v95h75v-97c57.333 -7.33301 113.666 -31 168.999 -71l-69 -84c-45.333 37.333 -93.333 56 -144 56c-26 0 -48.667 -6.83301 -68 -20.5s-29 -33.167 -29 -58.5c0 -6 0.833008 -11.5 2.5 -16.5s4.33398 -9.83301 8.00098 -14.5
s7.16699 -8.83398 10.5 -12.501s8.5 -7.33398 15.5 -11.001s12.833 -6.83398 17.5 -9.50098s11.667 -5.83398 21 -9.50098s16.833 -6.5 22.5 -8.5s14 -5 25 -9s19.167 -7 24.5 -9c27.333 -10 50 -19.333 68 -28s37 -20.667 57 -36s35 -34 45 -56s15 -47.667 15 -77
c0 -57.333 -18.5 -103.666 -55.5 -138.999s-83.833 -57.333 -140.5 -66v-99h-76v95c-80 4.66699 -154 40.334 -222 107.001z" />
    <glyph glyph-name="Euro.lf" horiz-adv-x="650" 
d="M12 367v86h88c23.333 70 64.833 124.833 124.5 164.5s125.5 59.5 197.5 59.5c69.333 0 136.666 -19.667 201.999 -59l-54 -91c-43.333 31.333 -91.333 47 -144 47c-46.667 0 -87.167 -10.667 -121.5 -32s-60.166 -51 -77.499 -89h250v-86h-275
c-1.33301 -16 -2 -27.667 -2 -35c0 -16 0.666992 -28 2 -36h275v-85h-253c18.667 -40 45.667 -70 81 -90s75.333 -30 120 -30c58 0 108.333 17.333 151 52l64 -85c-66 -46.667 -139.333 -70 -220 -70c-73.333 0 -139.5 19.5 -198.5 58.5s-99.833 93.833 -122.5 164.5h-87v85
h70c-1.33301 16 -2 28 -2 36c0 7.33301 0.666992 19 2 35h-70z" />
    <glyph glyph-name="cent.lf" 
d="M437 182l63.001 -84.999c-36.667 -32 -82.334 -51 -137.001 -57v-88h-76v89c-66 8.66699 -119.667 37.167 -161 85.5s-62 108.833 -62 181.5c0 68 20.667 126.667 62 176s95 79.333 161 90v91h76v-90c48 -4.66699 93 -22.334 135 -53.001l-61 -90c-30 26 -64 39 -102 39
c-42 0 -77.167 -15.833 -105.5 -47.5s-42.5 -70.167 -42.5 -115.5c0 -47.333 14.333 -86.5 43 -117.5s63.334 -46.5 104.001 -46.5c39.333 0 73.666 12.667 102.999 38z" />
    <glyph glyph-name="sterling.lf" 
d="M499 0h-424.001v106h56v199h-56v106h56v40c0 66 19.667 120.167 59 162.5s90 63.5 152 63.5c58.667 0 112 -14.667 160 -44l-48 -95c-27.333 22.667 -61.333 34 -102 34c-33.333 0 -58.666 -12.333 -75.999 -37s-26 -58.667 -26 -102v-22h130v-106h-130v-199h249v-106z
" />
    <glyph glyph-name="yen.lf" 
d="M47 256v86h136l-180 323h138l136 -250h2l131 250h137l-184 -323h135v-86h-165v-58h165v-86h-166v-112h-119v112h-166v86h165v58h-165z" />
    <glyph glyph-name="florin.lf" 
d="M413 410l-0.000976562 -105h-128l-39 -340c-6 -54.667 -23.333 -96.667 -52 -126s-65.667 -44 -111 -44c-27.333 0 -57.333 4.33301 -90 13l25 99c18.667 -4.66699 35.667 -7 51 -7c20.667 0 34.834 6.83301 42.501 20.5s13.167 35.5 16.5 65.5l36 319h-76v105h88l11 97
c6 54 24.167 95.833 54.5 125.5s69.833 44.5 118.5 44.5c46 0 93.333 -11.667 142 -35l-42 -96c-26.667 17.333 -55.667 26 -87 26c-24 0 -40.5 -7 -49.5 -21s-15.167 -35.667 -18.5 -65l-9 -76h117z" />
    <glyph glyph-name="afii61352.lf" horiz-adv-x="1137" 
d="M931 721c52 0 95 -17 129 -51s51 -76.333 51 -127s-17 -93 -51 -127s-77 -51 -129 -51s-95 17 -129 51s-51 76.333 -51 127s17 93 51 127s77 51 129 51zM1018 543c0 30 -8 54.833 -24 74.5s-37 29.5 -63 29.5s-47 -9.83301 -63 -29.5s-24 -44.5 -24 -74.5
s8 -54.833 24 -74.5s37 -29.5 63 -29.5s47 9.83301 63 29.5s24 44.5 24 74.5zM666 0h-111l-346 473v-473h-124v700h109l348 -474v474h124v-700z" />
    </font>
</defs>
</svg>
