<?xml version="1.0" standalone="no"?>
<!DOCTYPE svg PUBLIC "-//W3C//DTD SVG 1.1//EN" "http://www.w3.org/Graphics/SVG/1.1/DTD/svg11.dtd" >
<svg xmlns="http://www.w3.org/2000/svg" xmlns:xlink="http://www.w3.org/1999/xlink" version="1.1">
<metadata>
Created by FontForge 20190801 at Mon Nov 14 17:30:59 2011
 By Jimmy Wärting
Copyright (c) 2011 by Wolfgang Homola, distributed by TypeTogether. All rights reserved.
</metadata>
<defs>
<font id="Soleil-Light" horiz-adv-x="550" >
  <font-face 
    font-family="Soleil Lt"
    font-weight="300"
    font-stretch="normal"
    units-per-em="1000"
    panose-1="2 0 5 3 0 0 0 2 0 3"
    ascent="750"
    descent="-250"
    x-height="488"
    cap-height="700"
    bbox="-210 -332 1218 1049"
    underline-thickness="50"
    underline-position="-100"
    unicode-range="U+000D-FB04"
  />
<missing-glyph 
d="M67 663h417v-663h-417v663zM113 619v-575h324v575h-324zM290 230h-43v99q21 7 34.5 13t29 17t23 26.5t7.5 36.5q0 26 -20 46t-49 20q-31 0 -50 -20.5t-19 -52.5v-1h-40v1q0 47 32 77.5t77 30.5q46 0 77.5 -31t31.5 -69q0 -49 -25 -75.5t-66 -43.5v-74zM292 118h-48v57h48
v-57z" />
    <glyph glyph-name="ff" unicode="ff" horiz-adv-x="652" 
d="M350 744l-17 -56q-29 12 -61 12q-40 0 -62 -17q-31 -24 -31 -115v-80h137v-62h-137v-426h-68v426h-57v62h57v86q0 85 31 131q39 57 120 57q36 0 88 -18zM676 744l-17 -56q-29 12 -61 12q-40 0 -62 -17q-31 -24 -31 -115v-80h137v-62h-137v-426h-68v426h-57v62h57v86
q0 85 31 131q39 57 120 57q36 0 88 -18z" />
    <glyph glyph-name="fi" unicode="fi" horiz-adv-x="576" 
d="M330 751l-10 -58q-24 7 -48 7q-40 0 -62 -17q-31 -24 -31 -115v-80h137v-62h-137v-426h-68v426h-57v62h57v86q0 85 31 131q39 57 120 57q31 0 68 -11zM485 0h-68v488h68v-488zM485 597h-68v94h68v-94z" />
    <glyph glyph-name="fl" unicode="fl" horiz-adv-x="576" 
d="M330 751l-10 -58q-24 7 -48 7q-40 0 -62 -17q-31 -24 -31 -115v-80h137v-62h-137v-426h-68v426h-57v62h57v86q0 85 31 131q39 57 120 57q31 0 68 -11zM485 750v-750h-68v750h68z" />
    <glyph glyph-name="ffi" unicode="ffi" horiz-adv-x="902" 
d="M656 751l-10 -58q-25 7 -48 7q-40 0 -62 -17q-31 -24 -31 -115v-80h137v-62h-137v-426h-68v426h-57v62h57v86q0 85 31 131q39 57 120 57q31 0 68 -11zM350 744l-17 -56q-29 12 -61 12q-40 0 -62 -17q-31 -24 -31 -115v-80h137v-62h-137v-426h-68v426h-57v62h57v86
q0 85 31 131q39 57 120 57q36 0 88 -18zM811 0h-68v488h68v-488zM811 597h-68v94h68v-94z" />
    <glyph glyph-name="ffl" unicode="ffl" horiz-adv-x="902" 
d="M656 751l-10 -58q-25 7 -48 7q-40 0 -62 -17q-31 -24 -31 -115v-80h137v-62h-137v-426h-68v426h-57v62h57v86q0 85 31 131q39 57 120 57q31 0 68 -11zM350 744l-17 -56q-29 12 -61 12q-40 0 -62 -17q-31 -24 -31 -115v-80h137v-62h-137v-426h-68v426h-57v62h57v86
q0 85 31 131q39 57 120 57q36 0 88 -18zM811 750v-750h-68v750h68z" />
    <glyph glyph-name="f_k" unicode="fk" horiz-adv-x="819" 
d="M330 751l-10 -58q-24 7 -48 7q-40 0 -62 -17q-31 -24 -31 -115v-80h137v-62h-137v-426h-68v426h-57v62h57v86q0 85 31 131q39 57 120 57q31 0 68 -11zM788 488l-166 -196l190 -292h-83l-153 237l-91 -107v-130h-68v750h68v-527l2 -1l220 266h81z" />
    <glyph glyph-name="f_b" unicode="fb" horiz-adv-x="938" 
d="M330 751l-10 -58q-24 7 -48 7q-40 0 -62 -17q-31 -24 -31 -115v-80h137v-62h-137v-426h-68v426h-57v62h57v86q0 85 31 131q39 57 120 57q31 0 68 -11zM485 750v-325q57 75 157 75q106 0 178 -74.5t72 -179.5q0 -106 -72.5 -182t-178.5 -76q-91 0 -156 60v-48h-68v750h68z
M485 346v-219q27 -35 70 -56t85 -21q78 0 130 56.5t52 135.5q0 81 -51.5 138.5t-130.5 57.5q-46 0 -90.5 -25t-64.5 -67z" />
    <glyph glyph-name="f_h" unicode="fh" horiz-adv-x="927" 
d="M330 751l-10 -58q-24 7 -48 7q-40 0 -62 -17q-31 -24 -31 -115v-80h137v-62h-137v-426h-68v426h-57v62h57v86q0 85 31 131q39 57 120 57q31 0 68 -11zM485 750v-348q59 98 174 98q100 0 142 -59.5t42 -176.5v-264h-68v253q0 31 -2.5 55t-10.5 49.5t-21.5 42.5t-36.5 27.5
t-55 10.5q-52 0 -95 -32t-69 -82v-324h-68v750h68z" />
    <glyph glyph-name="f_t" unicode="ft" horiz-adv-x="663" 
d="M350 744l-17 -56q-29 12 -61 12q-40 0 -62 -17q-31 -24 -31 -115v-80h137v-62h-137v-426h-68v426h-57v62h57v86q0 85 31 131q39 57 120 57q36 0 88 -18zM637 426h-142v-269q0 -61 18.5 -82.5t56.5 -21.5q24 0 60 13l17 -54q-39 -21 -78 -21q-70 0 -106 40.5t-36 117.5
v277h-69v62h69v122h68v-122h142v-62z" />
    <glyph glyph-name="f_j" unicode="fj" horiz-adv-x="583" 
d="M330 751l-10 -58q-24 7 -48 7q-40 0 -62 -17q-31 -24 -31 -115v-80h137v-62h-137v-426h-68v426h-57v62h57v86q0 85 31 131q39 57 120 57q31 0 68 -11zM493 597h-68v94h68v-94zM273 -198l21 56q27 -16 53 -16q42 0 60 24t18 107v515h68v-521q0 -95 -33 -139
q-35 -48 -102 -48q-46 0 -85 22z" />
    <glyph glyph-name="f_f_j" unicode="ffj" horiz-adv-x="909" 
d="M656 751l-10 -58q-25 7 -48 7q-40 0 -62 -17q-31 -24 -31 -115v-80h137v-62h-137v-426h-68v426h-57v62h57v86q0 85 31 131q39 57 120 57q31 0 68 -11zM350 744l-17 -56q-29 12 -61 12q-40 0 -62 -17q-31 -24 -31 -115v-80h137v-62h-137v-426h-68v426h-57v62h57v86
q0 85 31 131q39 57 120 57q36 0 88 -18zM819 597h-68v94h68v-94zM599 -198l21 56q27 -16 53 -16q42 0 60 24t18 107v515h68v-521q0 -95 -33 -139q-35 -48 -102 -48q-46 0 -85 22z" />
    <glyph glyph-name="f_f_k" unicode="ffk" horiz-adv-x="1145" 
d="M656 751l-10 -58q-25 7 -48 7q-40 0 -62 -17q-31 -24 -31 -115v-80h137v-62h-137v-426h-68v426h-57v62h57v86q0 85 31 131q39 57 120 57q31 0 68 -11zM350 744l-17 -56q-29 12 -61 12q-40 0 -62 -17q-31 -24 -31 -115v-80h137v-62h-137v-426h-68v426h-57v62h57v86
q0 85 31 131q39 57 120 57q36 0 88 -18zM1114 488l-166 -196l190 -292h-83l-153 237l-91 -107v-130h-68v750h68v-527l2 -1l220 266h81z" />
    <glyph glyph-name="f_f_b" unicode="ffb" horiz-adv-x="1264" 
d="M656 751l-10 -58q-25 7 -48 7q-40 0 -62 -17q-31 -24 -31 -115v-80h137v-62h-137v-426h-68v426h-57v62h57v86q0 85 31 131q39 57 120 57q31 0 68 -11zM350 744l-17 -56q-29 12 -61 12q-40 0 -62 -17q-31 -24 -31 -115v-80h137v-62h-137v-426h-68v426h-57v62h57v86
q0 85 31 131q39 57 120 57q36 0 88 -18zM811 750v-325q57 75 157 75q106 0 178 -74.5t72 -179.5q0 -106 -72.5 -182t-178.5 -76q-91 0 -156 60v-48h-68v750h68zM811 346v-219q27 -35 70 -56t85 -21q78 0 130 56.5t52 135.5q0 81 -51.5 138.5t-130.5 57.5q-46 0 -90.5 -25
t-64.5 -67z" />
    <glyph glyph-name="f_f_h" unicode="ffh" horiz-adv-x="1253" 
d="M656 751l-10 -58q-25 7 -48 7q-40 0 -62 -17q-31 -24 -31 -115v-80h137v-62h-137v-426h-68v426h-57v62h57v86q0 85 31 131q39 57 120 57q31 0 68 -11zM350 744l-17 -56q-29 12 -61 12q-40 0 -62 -17q-31 -24 -31 -115v-80h137v-62h-137v-426h-68v426h-57v62h57v86
q0 85 31 131q39 57 120 57q36 0 88 -18zM811 750v-348q59 98 174 98q100 0 142 -59.5t42 -176.5v-264h-68v253q0 31 -2.5 55t-10.5 49.5t-21.5 42.5t-36.5 27.5t-55 10.5q-52 0 -95 -32t-69 -82v-324h-68v750h68z" />
    <glyph glyph-name="f_f_t" unicode="fft" horiz-adv-x="989" 
d="M676 744l-17 -56q-29 12 -61 12q-40 0 -62 -17q-31 -24 -31 -115v-80h137v-62h-137v-426h-68v426h-57v62h57v86q0 85 31 131q39 57 120 57q36 0 88 -18zM350 744l-17 -56q-29 12 -61 12q-40 0 -62 -17q-31 -24 -31 -115v-80h137v-62h-137v-426h-68v426h-57v62h57v86
q0 85 31 131q39 57 120 57q36 0 88 -18zM963 426h-142v-269q0 -61 18.5 -82.5t56.5 -21.5q24 0 60 13l17 -54q-39 -21 -78 -21q-70 0 -106 40.5t-36 117.5v277h-69v62h69v122h68v-122h142v-62z" />
    <glyph glyph-name="f_iacute" unicode="f&#xed;" horiz-adv-x="576" 
d="M350 744l-17 -56q-29 12 -61 12q-40 0 -62 -17q-31 -24 -31 -115v-80h137v-62h-137v-426h-68v426h-57v62h57v86q0 85 31 131q39 57 120 57q36 0 88 -18zM562 711l-126 -153l-43 34l118 158zM485 0h-68v488h68v-488z" />
    <glyph glyph-name="t_t" unicode="tt" horiz-adv-x="674" 
d="M311 426h-142v-269q0 -61 18.5 -82.5t56.5 -21.5q24 0 60 13l17 -54q-39 -21 -78 -21q-70 0 -106 40.5t-36 117.5v277h-69v62h69v122h68v-122h142v-62zM648 426h-142v-269q0 -61 18.5 -82.5t56.5 -21.5q24 0 60 13l17 -54q-38 -21 -78 -21q-70 0 -106 40.5t-36 117.5v277
h-69v62h69v122h68v-122h142v-62z" />
    <glyph glyph-name=".notdef" 
d="M67 663h417v-663h-417v663zM113 619v-575h324v575h-324zM290 230h-43v99q21 7 34.5 13t29 17t23 26.5t7.5 36.5q0 26 -20 46t-49 20q-31 0 -50 -20.5t-19 -52.5v-1h-40v1q0 47 32 77.5t77 30.5q46 0 77.5 -31t31.5 -69q0 -49 -25 -75.5t-66 -43.5v-74zM292 118h-48v57h48
v-57z" />
    <glyph glyph-name=".null" horiz-adv-x="0" 
 />
    <glyph glyph-name="nonmarkingreturn" horiz-adv-x="333" 
 />
    <glyph glyph-name="CR" unicode="&#xd;" horiz-adv-x="500" 
 />
    <glyph glyph-name="space" unicode=" " horiz-adv-x="250" 
 />
    <glyph glyph-name="exclam" unicode="!" horiz-adv-x="312" 
d="M200 700v-105l-10 -398h-68l-10 398v105h88zM198 0h-84v101h84v-101z" />
    <glyph glyph-name="quotedbl" unicode="&#x22;" horiz-adv-x="462" 
d="M154 446h-60l-8 254h76zM368 446h-60l-8 254h76z" />
    <glyph glyph-name="numbersign" unicode="#" horiz-adv-x="784" 
d="M692 402h-160l-23 -141h109v-60h-118l-32 -201h-67l32 201h-129l-32 -201h-67l32 201h-146v60h155l23 141h-104v60h113l33 201h67l-33 -201h129l33 201h67l-33 -201h151v-60zM336 402l-23 -141h129l23 141h-129z" />
    <glyph glyph-name="dollar" unicode="$" 
d="M41 81l51 51q75 -80 178 -80q37 0 70 11.5t59 42t26 76.5q0 24 -9.5 44t-21.5 32.5t-37.5 26t-41 19.5t-48.5 18q-36 13 -55.5 20.5t-49 24t-44.5 34t-27 45.5t-12 62q0 70 49.5 116.5t126.5 50.5v95h54v-97q83 -6 160 -60l-46 -53q-53 50 -144 50q-52 0 -91.5 -25.5
t-39.5 -76.5q0 -14 4.5 -27t10 -22t18.5 -18.5t21 -15t27.5 -13.5t28 -11.5t32.5 -11.5t32 -11q39 -14 65 -27t53.5 -34.5t41.5 -52.5t14 -72q0 -85 -53.5 -138t-137.5 -64v-96h-54v94q-114 1 -210 93z" />
    <glyph glyph-name="percent" unicode="%" horiz-adv-x="849" 
d="M63 551q0 65 44 110t107 45t107.5 -45.5t44.5 -109.5t-44.5 -109t-107.5 -45t-107 45t-44 109zM120 551q0 -40 27.5 -68.5t66.5 -28.5q40 0 67.5 28t27.5 69t-27.5 69.5t-67.5 28.5q-39 0 -66.5 -28.5t-27.5 -69.5zM483 148q0 65 44 110t107 45t107.5 -45.5t44.5 -109.5
t-44.5 -109t-107.5 -45t-107 45t-44 109zM540 148q0 -40 27.5 -68.5t66.5 -28.5q40 0 67.5 28t27.5 69t-27.5 69.5t-67.5 28.5q-39 0 -66.5 -28.5t-27.5 -69.5zM650 709l46 -34l-497 -684l-46 34z" />
    <glyph glyph-name="ampersand" unicode="&#x26;" horiz-adv-x="674" 
d="M645 -13l-126 112q-82 -111 -228 -111q-87 0 -154.5 65t-67.5 148q0 66 32.5 116t91.5 76q-72 75 -72 154q0 72 58.5 118.5t133.5 46.5q59 0 108 -31t64 -84l-65 -20q-12 33 -41.5 51.5t-67.5 18.5q-49 0 -84.5 -28.5t-35.5 -77.5q0 -28 17 -57t34.5 -46.5t55.5 -51.5
l-43 -52l-16 14q-47 -21 -73.5 -60t-26.5 -88q0 -60 49 -103.5t117 -43.5q53 0 92.5 19t75.5 67l-86 76l45 51l258 -228z" />
    <glyph glyph-name="quotesingle" unicode="'" horiz-adv-x="248" 
d="M154 446h-60l-8 254h76z" />
    <glyph glyph-name="parenleft" unicode="(" horiz-adv-x="330" 
d="M340 -124l-27 -47q-255 153 -255 474q0 315 255 474l28 -49q-213 -139 -213 -425q0 -289 212 -427z" />
    <glyph glyph-name="parenright" unicode=")" horiz-adv-x="330" 
d="M272 303q0 -321 -255 -474l-27 47q212 138 212 427q0 286 -213 425l28 49q255 -159 255 -474z" />
    <glyph glyph-name="asterisk" unicode="*" horiz-adv-x="482" 
d="M273 712l-5 -126l119 44l20 -61l-118 -33l81 -103l-51 -38l-78 116l-78 -116l-51 38l80 103l-117 33l20 61l119 -44l-5 126h64z" />
    <glyph glyph-name="plus" unicode="+" 
d="M245 68v214h-214v60h214v214h60v-214h214v-60h-214v-214h-60z" />
    <glyph glyph-name="comma" unicode="," horiz-adv-x="250" 
d="M166 101l-63 -239h-65l48 239h80z" />
    <glyph glyph-name="hyphen" unicode="-" horiz-adv-x="467" 
d="M358 242h-249v63h249v-63z" />
    <glyph glyph-name="period" unicode="." horiz-adv-x="250" 
d="M166 0h-83v101h83v-101z" />
    <glyph glyph-name="slash" unicode="/" horiz-adv-x="349" 
d="M349 740l-292 -788l-57 22l292 788z" />
    <glyph glyph-name="zero" unicode="0" 
d="M275 676q109 0 169.5 -91.5t60.5 -252.5t-60.5 -252.5t-169.5 -91.5t-169.5 91.5t-60.5 252.5t60.5 252.5t169.5 91.5zM275 608q-75 0 -115 -70t-40 -206t40 -206t115 -70t115 70t40 206t-40 206t-115 70z" />
    <glyph glyph-name="one" unicode="1" horiz-adv-x="339" 
d="M234 0h-73v573q-38 -19 -103 -45v69q80 39 129 67h47v-664z" />
    <glyph glyph-name="two" unicode="2" horiz-adv-x="501" 
d="M56 0v74q159 170 238 289q55 81 55 142q0 45 -34 74t-81 29q-45 0 -79 -29t-38 -75l-71 15q7 68 62.5 112.5t128.5 44.5q74 0 131.5 -49.5t57.5 -124.5q0 -77 -66 -173q-102 -146 -211 -261h316v-68h-409z" />
    <glyph glyph-name="three" unicode="3" horiz-adv-x="510" 
d="M142 306l2 77q65 0 104 9q41 10 70.5 39.5t29.5 71.5q0 46 -36 75.5t-86 29.5q-85 0 -120 -73l-64 28q22 53 73 83t113 30q78 0 136 -47.5t58 -126.5q0 -48 -23.5 -87t-67.5 -59q55 -16 89 -63t34 -105q0 -85 -61 -142.5t-154 -57.5q-132 0 -204 100l51 35
q47 -68 144 -68q61 0 105 34t44 93q0 60 -47.5 95t-122.5 35q-27 0 -67 -6z" />
    <glyph glyph-name="four" unicode="4" horiz-adv-x="530" 
d="M507 185h-99v-185h-73v185h-303v78q123 157 298 401h78v-416h99v-63zM335 563q-93 -138 -234 -315h234v315z" />
    <glyph glyph-name="five" unicode="5" horiz-adv-x="492" 
d="M65 321q6 59 23 343h331v-68h-265q-4 -122 -13 -212q42 26 107 26q87 0 148.5 -59.5t61.5 -150.5q0 -85 -62.5 -148.5t-154.5 -63.5q-59 0 -112.5 26t-86.5 75l55 39q58 -72 130 -72q63 0 109.5 41.5t46.5 104.5q0 61 -42.5 100.5t-105.5 39.5q-65 0 -115 -44z" />
    <glyph glyph-name="six" unicode="6" horiz-adv-x="530" 
d="M393 630q-229 -107 -266 -299q69 83 166 83q84 0 138 -63t54 -152q0 -85 -60 -148t-150 -63q-103 0 -166.5 78t-63.5 182q0 151 90 271t228 176zM120 238q4 -78 41.5 -130t112.5 -52q62 0 99 42.5t37 108.5q0 58 -34.5 98.5t-92.5 40.5q-50 0 -92.5 -29.5t-70.5 -78.5z
" />
    <glyph glyph-name="seven" unicode="7" horiz-adv-x="442" 
d="M420 664v-59q-145 -302 -278 -622l-68 30q63 148 267 583h-328v68h407z" />
    <glyph glyph-name="eight" unicode="8" horiz-adv-x="548" 
d="M375 348q50 -23 81.5 -67t31.5 -100q0 -82 -60.5 -137.5t-153.5 -55.5t-153.5 55.5t-60.5 137.5q0 56 31.5 100t81.5 67q-93 51 -93 147q0 77 54.5 129t139.5 52t139.5 -52t54.5 -129q0 -96 -93 -147zM274 56q59 0 99 36t40 91q0 52 -40.5 89t-98.5 37t-98.5 -37
t-40.5 -89q0 -55 40 -91t99 -36zM274 377q49 0 85 35t36 82q0 49 -35.5 81.5t-85.5 32.5t-85.5 -32.5t-35.5 -81.5q0 -47 36 -82t85 -35z" />
    <glyph glyph-name="nine" unicode="9" horiz-adv-x="530" 
d="M137 34q229 107 266 299q-69 -83 -166 -83q-84 0 -138 63t-54 152q0 85 60 148t150 63q103 0 166.5 -78t63.5 -182q0 -151 -90 -271t-228 -176zM410 426q-4 78 -41.5 130t-112.5 52q-62 0 -99 -42.5t-37 -108.5q0 -58 34.5 -98.5t92.5 -40.5q50 0 92.5 29.5t70.5 78.5z
" />
    <glyph glyph-name="colon" unicode=":" horiz-adv-x="250" 
d="M166 387h-83v101h83v-101zM166 0h-83v101h83v-101z" />
    <glyph glyph-name="semicolon" unicode=";" horiz-adv-x="250" 
d="M166 101l-63 -239h-65l48 239h80zM170 387h-83v101h83v-101z" />
    <glyph glyph-name="less" unicode="&#x3c;" 
d="M31 277v67l489 195v-65l-412 -164l412 -164v-65z" />
    <glyph glyph-name="equal" unicode="=" 
d="M485 200h-419v60h419v-60zM485 364h-419v60h419v-60z" />
    <glyph glyph-name="greater" unicode="&#x3e;" 
d="M520 344v-67l-489 -196v65l412 164l-412 164v65z" />
    <glyph glyph-name="question" unicode="?" horiz-adv-x="539" 
d="M302 197h-75v173q36 12 59.5 23.5t50.5 30t40.5 46t13.5 63.5q0 46 -35 79.5t-85 33.5q-55 0 -88.5 -33.5t-33.5 -90.5v-2h-70v2q0 81 57.5 135.5t134.5 54.5q78 0 134 -55t56 -121q0 -46 -13.5 -81.5t-39 -59.5t-49.5 -39t-57 -29v-130zM306 0h-84v101h84v-101z" />
    <glyph glyph-name="at" unicode="@" horiz-adv-x="803" 
d="M502 171v74q-45 72 -118 72q-49 0 -80 -35.5t-31 -86.5q0 -48 31.5 -84t78.5 -36q39 0 70 27t49 69zM507 362h53v-158q0 -62 8 -95t17.5 -40t23.5 -7q37 0 55.5 47t18.5 119q0 115 -82 187t-199 72t-199.5 -84t-82.5 -201t82.5 -201t199.5 -84q66 0 130 33l13 -61
q-67 -31 -143 -31q-142 0 -243 101t-101 243t101 243t243 101q146 0 244.5 -90.5t98.5 -233.5q0 -57 -14 -104t-48.5 -79.5t-84.5 -32.5q-15 0 -30 5t-34 26.5t-28 56.5q-15 -35 -49 -55t-73 -20q-73 0 -123 51t-50 126q0 73 50 125t123 52q72 0 119 -52z" />
    <glyph glyph-name="A" unicode="A" horiz-adv-x="611" 
d="M15 0l270 700h67l244 -700h-83l-53 159h-308l-60 -159h-77zM315 596l-138 -369h261l-122 369h-1z" />
    <glyph glyph-name="B" unicode="B" horiz-adv-x="616" 
d="M103 700h161q117 0 185 -47q68 -48 68 -138q0 -113 -113 -152q141 -35 141 -168q0 -119 -107 -166q-66 -29 -178 -29h-157v700zM177 68h62q115 0 163 22q64 29 64 105q0 58 -42.5 93.5t-119.5 35.5h-127v-256zM177 632v-240h80q186 0 186 118q0 65 -44 93q-45 29 -165 29
h-57z" />
    <glyph glyph-name="C" unicode="C" horiz-adv-x="674" 
d="M599 102l39 -57q-90 -57 -196 -57q-163 0 -270 101t-107 261q0 154 110 258t268 104q97 0 175 -48l-34 -57q-68 37 -142 37q-129 0 -213.5 -83t-84.5 -211q0 -134 82 -214t217 -80q83 0 156 46z" />
    <glyph glyph-name="D" unicode="D" horiz-adv-x="722" 
d="M103 0v700h182q55 0 107 -11.5t100.5 -38t84.5 -65.5t58 -99t22 -133q0 -93 -32.5 -163.5t-88.5 -110.5t-121.5 -59.5t-139.5 -19.5h-172zM177 68h41q174 0 267 63t93 213q0 140 -81.5 214t-230.5 74h-89v-564z" />
    <glyph glyph-name="E" unicode="E" horiz-adv-x="580" 
d="M510 0h-407v700h407v-68h-333v-236h333v-68h-333v-260h333v-68z" />
    <glyph glyph-name="F" unicode="F" horiz-adv-x="491" 
d="M443 310h-266v-310h-74v700h340v-68h-266v-254h266v-68z" />
    <glyph glyph-name="G" unicode="G" horiz-adv-x="808" 
d="M647 310h-183v68h257v-260q-49 -60 -122.5 -95t-156.5 -35q-163 0 -270 101t-107 261q0 154 110 258t268 104q75 0 143 -32t117 -86l-54 -42q-38 42 -93 67t-114 25q-129 0 -213.5 -83t-84.5 -211q0 -134 82 -214t217 -80q122 0 204 77v177z" />
    <glyph glyph-name="H" unicode="H" horiz-adv-x="758" 
d="M655 0h-74v330h-404v-330h-74v700h74v-302h404v302h74v-700z" />
    <glyph glyph-name="I" unicode="I" horiz-adv-x="280" 
d="M177 0h-74v700h74v-700z" />
    <glyph glyph-name="J" unicode="J" horiz-adv-x="340" 
d="M242 700v-527q0 -90 -35.5 -137.5t-122.5 -47.5q-37 0 -88 17l18 63q29 -12 57 -12q61 0 79 28.5t18 99.5v516h74z" />
    <glyph glyph-name="K" unicode="K" horiz-adv-x="611" 
d="M589 700l-230 -275l248 -425h-87l-212 365l-131 -158v-207h-74v700h74v-386l321 386h91z" />
    <glyph glyph-name="L" unicode="L" horiz-adv-x="494" 
d="M489 0h-386v700h74v-632h312v-68z" />
    <glyph glyph-name="M" unicode="M" horiz-adv-x="922" 
d="M819 700v-700h-74v640l-258 -640h-55l-255 638v-638h-74v700h128l229 -582l230 582h129z" />
    <glyph glyph-name="N" unicode="N" horiz-adv-x="749" 
d="M646 0h-56l-417 562v-562h-70v700h55l418 -563v563h70v-700z" />
    <glyph glyph-name="O" unicode="O" horiz-adv-x="844" 
d="M700 350q0 124 -79.5 209t-198.5 85t-198.5 -85t-79.5 -209t79.5 -209t198.5 -85t198.5 85t79.5 209zM779 350q0 -151 -103 -256.5t-254 -105.5t-254 105.5t-103 256.5t103 256.5t254 105.5t254 -105.5t103 -256.5z" />
    <glyph glyph-name="P" unicode="P" horiz-adv-x="578" 
d="M103 700h202q60 0 112 -19t90 -67t38 -119q0 -54 -21.5 -95.5t-57 -64.5t-76.5 -34.5t-85 -11.5h-128v-289h-74v700zM177 632v-275h103q186 0 186 136q0 64 -45.5 101.5t-120.5 37.5h-123z" />
    <glyph glyph-name="Q" unicode="Q" horiz-adv-x="844" 
d="M765 -11l-50 -50l-103 103q-85 -54 -190 -54q-151 0 -254 105.5t-103 256.5t103 256.5t254 105.5t254 -105.5t103 -256.5q0 -158 -111 -264zM507 246l109 -110q84 86 84 214q0 124 -79.5 209t-198.5 85t-198.5 -85t-79.5 -209t79.5 -209t198.5 -85q76 0 138 37l-103 103z
" />
    <glyph glyph-name="R" unicode="R" horiz-adv-x="604" 
d="M177 305v-305h-74v700h201q41 0 80.5 -11t74.5 -33.5t56 -62t21 -90.5q0 -78 -48 -130t-134 -66q89 -122 227 -307h-92l-220 305h-92zM177 632v-259h102q178 0 178 128q0 59 -43.5 95t-114.5 36h-122z" />
    <glyph glyph-name="S" unicode="S" horiz-adv-x="609" 
d="M453 591q-23 23 -64.5 38t-82.5 15q-65 0 -103 -29t-38 -80q0 -14 5 -27t10.5 -22.5t19.5 -19.5t22.5 -15.5t29 -14t30 -12.5t34.5 -13t34 -12q41 -15 68 -29t56 -36.5t43.5 -55t14.5 -74.5q0 -56 -22.5 -99.5t-59 -68t-76 -36.5t-79.5 -12q-146 0 -246 99l56 50
q48 -49 90.5 -65t100.5 -16q65 0 111 35t46 101q0 24 -10 44.5t-23 34t-38.5 27.5t-43 21.5t-50.5 19.5q-31 11 -42.5 15.5t-38.5 16.5t-38.5 20.5t-30.5 23.5t-27 30t-15 35.5t-7 44.5q0 91 58.5 139t146.5 48q120 0 208 -67z" />
    <glyph glyph-name="T" unicode="T" horiz-adv-x="486" 
d="M461 632h-181v-632h-74v632h-181v68h436v-68z" />
    <glyph glyph-name="U" unicode="U" horiz-adv-x="724" 
d="M628 700v-371q0 -169 -64.5 -255t-203.5 -86q-264 0 -264 341v371h74v-399q0 -121 50.5 -183t141.5 -62t141.5 62t50.5 183v399h74z" />
    <glyph glyph-name="V" unicode="V" horiz-adv-x="591" 
d="M586 700l-269 -700h-69l-243 700h85l194 -588h1l222 588h79z" />
    <glyph glyph-name="W" unicode="W" horiz-adv-x="858" 
d="M467 700l150 -572h2l162 572h72l-201 -700h-73l-148 576h-2l-159 -576h-73l-192 700h77l154 -572h2l159 572h70z" />
    <glyph glyph-name="X" unicode="X" horiz-adv-x="621" 
d="M97 0h-92l254 356l-252 344h99l206 -288l204 288h92l-249 -350l257 -350h-99l-211 294z" />
    <glyph glyph-name="Y" unicode="Y" horiz-adv-x="524" 
d="M519 700l-226 -401v-299h-74v313l-214 387h91l166 -313h3l169 313h85z" />
    <glyph glyph-name="Z" unicode="Z" horiz-adv-x="535" 
d="M487 657l-346 -589h374v-68h-475v40l347 592h-340v68h440v-43z" />
    <glyph glyph-name="bracketleft" unicode="[" horiz-adv-x="311" 
d="M300 -170h-195v920h195v-60h-129v-800h129v-60z" />
    <glyph glyph-name="backslash" unicode="\" horiz-adv-x="346" 
d="M292 -47l-292 788l54 21l292 -788z" />
    <glyph glyph-name="bracketright" unicode="]" horiz-adv-x="311" 
d="M206 -170h-195v60h129v800h-129v60h195v-920z" />
    <glyph glyph-name="asciicircum" unicode="^" 
d="M248 676h54l152 -321h-57l-122 254l-122 -254h-57z" />
    <glyph glyph-name="underscore" unicode="_" 
d="M550 -241h-550v47h550v-47z" />
    <glyph glyph-name="grave" unicode="`" horiz-adv-x="360" 
d="M201 558l-126 153l51 39l118 -158z" />
    <glyph glyph-name="a" unicode="a" horiz-adv-x="534" 
d="M389 0l-5 57q-64 -69 -160 -69q-71 0 -120 39.5t-49 105.5q0 83 64 125t152 42q51 0 111 -15v27q0 126 -125 126q-83 0 -159 -42l-23 61q92 43 185 43q104 0 147 -51t43 -151v-298h-61zM382 230q-59 14 -114 14q-58 0 -101.5 -25.5t-43.5 -77.5q0 -43 29.5 -70t73.5 -27
q80 0 156 73v113z" />
    <glyph glyph-name="b" unicode="b" horiz-adv-x="612" 
d="M159 750v-325q57 75 157 75q106 0 178 -74.5t72 -179.5q0 -106 -72.5 -182t-178.5 -76q-91 0 -156 60v-48h-68v750h68zM159 346v-219q27 -35 70 -56t85 -21q78 0 130 56.5t52 135.5q0 81 -51.5 138.5t-130.5 57.5q-46 0 -90.5 -25t-64.5 -67z" />
    <glyph glyph-name="c" unicode="c" horiz-adv-x="463" 
d="M402 82l35 -52q-62 -42 -133 -42q-113 0 -185.5 73t-72.5 183q0 108 72.5 182t183.5 74q64 0 122 -33l-25 -57q-42 28 -102 28q-81 0 -131 -56.5t-50 -137.5q0 -84 50 -139t133 -55q24 0 54.5 9.5t48.5 22.5z" />
    <glyph glyph-name="d" unicode="d" horiz-adv-x="612" 
d="M453 0v63q-57 -75 -157 -75q-106 0 -178 74.5t-72 179.5q0 106 72.5 182t178.5 76q91 0 156 -60v310h68v-750h-68zM453 142v219q-27 35 -70 56t-85 21q-78 0 -130 -56.5t-52 -135.5q0 -81 51.5 -138.5t130.5 -57.5q46 0 90.5 25t64.5 67z" />
    <glyph glyph-name="e" unicode="e" horiz-adv-x="548" 
d="M499 227h-385q5 -75 51.5 -128t122.5 -53q110 0 155 84l48 -31q-28 -52 -83.5 -81.5t-114.5 -29.5q-116 0 -181.5 73.5t-65.5 185.5q0 107 69.5 180t169.5 73q93 0 155 -67.5t62 -160.5q0 -18 -3 -45zM435 285q-3 63 -46 110t-104 47q-69 0 -113.5 -43.5t-55.5 -113.5
h319z" />
    <glyph glyph-name="f" unicode="f" horiz-adv-x="326" 
d="M350 744l-17 -56q-29 12 -61 12q-40 0 -62 -17q-31 -24 -31 -115v-80h137v-62h-137v-426h-68v426h-57v62h57v86q0 85 31 131q39 57 120 57q36 0 88 -18z" />
    <glyph glyph-name="g" unicode="g" horiz-adv-x="605" 
d="M521 488v-460q0 -122 -70.5 -185t-175.5 -63q-111 0 -214 69l28 57q34 -27 84.5 -45.5t100.5 -18.5q76 0 127.5 40.5t51.5 124.5v68q-57 -75 -157 -75q-106 0 -178 73.5t-72 174.5q0 102 73 177t178 75q91 0 156 -60v48h68zM453 154v207q-27 35 -70 56t-85 21
q-78 0 -130 -55.5t-52 -130.5q0 -76 52 -133t130 -57q46 0 90.5 25t64.5 67z" />
    <glyph glyph-name="h" unicode="h" horiz-adv-x="601" 
d="M159 750v-348q59 98 174 98q100 0 142 -59.5t42 -176.5v-264h-68v253q0 31 -2.5 55t-10.5 49.5t-21.5 42.5t-36.5 27.5t-55 10.5q-52 0 -95 -32t-69 -82v-324h-68v750h68z" />
    <glyph glyph-name="i" unicode="i" horiz-adv-x="250" 
d="M159 0h-68v488h68v-488zM159 597h-68v94h68v-94z" />
    <glyph glyph-name="j" unicode="j" horiz-adv-x="257" 
d="M167 597h-68v94h68v-94zM-53 -198l21 56q27 -16 53 -16q42 0 60 24t18 107v515h68v-521q0 -95 -33 -139q-35 -48 -102 -48q-46 0 -85 22z" />
    <glyph glyph-name="k" unicode="k" horiz-adv-x="493" 
d="M462 488l-166 -196l190 -292h-83l-153 237l-91 -107v-130h-68v750h68v-527l2 -1l220 266h81z" />
    <glyph glyph-name="l" unicode="l" horiz-adv-x="250" 
d="M159 750v-750h-68v750h68z" />
    <glyph glyph-name="m" unicode="m" horiz-adv-x="915" 
d="M91 488h68v-86q59 98 163 98q116 0 154 -101q45 57 84.5 79t87.5 22q95 0 139 -59t44 -177v-264h-68v253q0 185 -118 185q-44 0 -85 -27.5t-69 -74.5q4 -29 4 -70v-266h-68v253q0 39 -4.5 68.5t-16 57.5t-35.5 43.5t-59 15.5q-45 0 -86.5 -32.5t-66.5 -81.5v-324h-68v488
z" />
    <glyph glyph-name="n" unicode="n" horiz-adv-x="601" 
d="M91 488h68v-86q59 98 174 98q100 0 142 -59.5t42 -176.5v-264h-68v253q0 31 -2.5 55t-10.5 49.5t-21.5 42.5t-36.5 27.5t-55 10.5q-52 0 -95 -32t-69 -82v-324h-68v488z" />
    <glyph glyph-name="o" unicode="o" horiz-adv-x="584" 
d="M292 500q107 0 176.5 -74t69.5 -182t-69.5 -182t-176.5 -74t-176.5 74t-69.5 182t69.5 182t176.5 74zM468 244q0 80 -48.5 137t-127.5 57t-127.5 -57t-48.5 -137t48.5 -137t127.5 -57t127.5 57t48.5 137z" />
    <glyph glyph-name="p" unicode="p" horiz-adv-x="612" 
d="M91 488h68v-63q57 75 157 75q106 0 178 -74.5t72 -179.5q0 -106 -72.5 -182t-178.5 -76q-91 0 -156 60v-298h-68v738zM159 346v-219q27 -35 70 -56t85 -21q78 0 130 56.5t52 135.5q0 81 -51.5 138.5t-130.5 57.5q-46 0 -90.5 -25t-64.5 -67z" />
    <glyph glyph-name="q" unicode="q" horiz-adv-x="612" 
d="M453 -250v313q-57 -75 -157 -75q-106 0 -178 74.5t-72 179.5q0 106 72.5 182t178.5 76q91 0 156 -60v48h68v-738h-68zM453 142v219q-27 35 -70 56t-85 21q-78 0 -130 -56.5t-52 -135.5q0 -81 51.5 -138.5t130.5 -57.5q46 0 90.5 25t64.5 67z" />
    <glyph glyph-name="r" unicode="r" horiz-adv-x="348" 
d="M159 488v-92q52 104 142 104q22 0 41 -4l-9 -75q-19 9 -46 9q-39 0 -69 -26.5t-59 -77.5v-326h-68v488h68z" />
    <glyph glyph-name="s" unicode="s" horiz-adv-x="438" 
d="M356 453l-37 -46q-45 35 -99 35q-33 0 -59.5 -17.5t-26.5 -49.5q0 -11 3.5 -20.5t7 -16.5t13 -14.5t15.5 -12t20 -11t20 -9.5t23 -10t23 -9q56 -23 87.5 -55t31.5 -91q0 -61 -53 -99.5t-119 -38.5q-91 0 -151 66l41 43q48 -51 112 -51q40 0 71 21t31 60q0 20 -7.5 35
t-26.5 27t-32 18.5t-41 17.5q-32 13 -49 22t-40 26t-33.5 40.5t-10.5 55.5q0 61 44 96t108 35q76 0 134 -47z" />
    <glyph glyph-name="t" unicode="t" horiz-adv-x="337" 
d="M311 426h-142v-269q0 -61 18.5 -82.5t56.5 -21.5q24 0 60 13l17 -54q-39 -21 -78 -21q-70 0 -106 40.5t-36 117.5v277h-69v62h69v122h68v-122h142v-62z" />
    <glyph glyph-name="u" unicode="u" horiz-adv-x="601" 
d="M510 0h-68v86q-59 -98 -174 -98q-100 0 -142 59.5t-42 176.5v264h68v-253q0 -31 2.5 -55t10.5 -49.5t21.5 -42.5t36.5 -27.5t55 -10.5q52 0 95 32t69 82v324h68v-488z" />
    <glyph glyph-name="v" unicode="v" horiz-adv-x="462" 
d="M184 0l-166 488h74l138 -413l147 413h73l-182 -488h-84z" />
    <glyph glyph-name="w" unicode="w" horiz-adv-x="713" 
d="M316 488h89l109 -422l112 422h67l-136 -488h-86l-114 415l-118 -415h-91l-124 488h70l102 -423z" />
    <glyph glyph-name="x" unicode="x" horiz-adv-x="458" 
d="M361 0l-135 196l-130 -196h-84l170 250l-164 238h85l128 -187l125 187h84l-167 -240l173 -248h-85z" />
    <glyph glyph-name="y" unicode="y" horiz-adv-x="456" 
d="M12 488h74l138 -413l147 413h73l-265 -711l-58 23l65 176z" />
    <glyph glyph-name="z" unicode="z" horiz-adv-x="441" 
d="M385 456l-229 -394h246v-62h-339v33l229 393h-240v62h333v-32z" />
    <glyph glyph-name="braceleft" unicode="{" horiz-adv-x="296" 
d="M8 266l2 70q78 18 78 157v76q0 86 48 139.5t128 53.5h18v-62q-6 1 -18 1q-56 0 -83 -45t-27 -116v-75q0 -104 -71 -164q71 -60 71 -164v-86q0 -71 27 -116t83 -45q12 0 18 1v-62h-18q-80 0 -128 53.5t-48 139.5v87q0 139 -80 157z" />
    <glyph glyph-name="bar" unicode="|" horiz-adv-x="319" 
d="M189 -170h-59v1028h59v-1028z" />
    <glyph glyph-name="braceright" unicode="}" horiz-adv-x="296" 
d="M286 336l2 -70q-80 -18 -80 -157v-87q0 -86 -48 -139.5t-128 -53.5h-18v62q6 -1 18 -1q56 0 83 45t27 116v86q0 104 71 164q-71 60 -71 164v75q0 71 -27 116t-83 45q-12 0 -18 -1v62h18q80 0 128 -53.5t48 -139.5v-76q0 -139 78 -157z" />
    <glyph glyph-name="asciitilde" unicode="~" 
d="M508 394q4 -13 4 -32q0 -55 -36.5 -84.5t-95.5 -29.5q-40 0 -81 23t-78 46t-66 23q-25 0 -41.5 -13.5t-16.5 -34.5q0 -12 3 -19l-58 -10q-4 13 -4 32q0 55 36.5 84.5t95.5 29.5q40 0 81 -23t78 -46t66 -23q25 0 41.5 13.5t16.5 34.5q0 11 -3 19z" />
    <glyph glyph-name="uni00A0" unicode="&#xa0;" horiz-adv-x="250" 
 />
    <glyph glyph-name="exclamdown" unicode="&#xa1;" horiz-adv-x="312" 
d="M112 -212v105l10 398h68l10 -398v-105h-88zM114 488h84v-101h-84v101z" />
    <glyph glyph-name="cent" unicode="&#xa2;" 
d="M476 109q-59 -41 -127 -42v-85h-55v89q-94 16 -151.5 85.5t-57.5 166.5q0 96 58 166t151 86v88h55v-84q62 -3 114 -33l-25 -57q-44 28 -104 28q-77 0 -128 -56t-51 -138t49 -138t131 -56q62 0 106 32z" />
    <glyph glyph-name="sterling" unicode="&#xa3;" 
d="M476 0h-392v68h58v256h-58v68h58v65q0 64 25.5 114.5t70.5 77.5q44 27 104 27q69 0 131 -35l-31 -61q-44 28 -100 28q-46 0 -74 -23q-53 -42 -53 -160v-33h135v-68h-135v-256h261v-68z" />
    <glyph glyph-name="currency" unicode="&#xa4;" 
d="M60 324q0 74 46 133l-49 49l36 36l50 -50q58 47 132 47q73 0 133 -47l49 50l36 -36l-49 -50q45 -58 45 -132t-45 -133l49 -49l-36 -36l-49 49q-59 -45 -133 -45t-132 45l-50 -49l-36 36l49 49q-46 57 -46 133zM124 324q0 -62 44.5 -106t106.5 -44t106 44t44 106
t-44 106.5t-106 44.5t-106.5 -44.5t-44.5 -106.5z" />
    <glyph glyph-name="yen" unicode="&#xa5;" 
d="M484 247h-174v-59h174v-64h-177v-124h-69v124h-177v64h174v59h-174v64h165l-198 352h85l164 -301h2l159 301h82l-200 -352h164v-64z" />
    <glyph glyph-name="brokenbar" unicode="&#xa6;" horiz-adv-x="319" 
d="M189 385h-59v365h59v-365zM130 162h59v-366h-59v366z" />
    <glyph glyph-name="section" unicode="&#xa7;" 
d="M68 -74l39 49q57 -55 137 -55q50 0 89.5 23t39.5 71q0 19 -8.5 34t-27 27t-33.5 19t-44 18t-42 17q-36 15 -56.5 26.5t-44.5 31t-35 46t-11 62.5q0 48 27 85.5t76 54.5q-72 45 -72 121q0 75 51.5 115.5t129.5 40.5q88 0 153 -45l-34 -51q-48 36 -123 36q-41 0 -74.5 -21
t-33.5 -62q0 -37 32 -62t77.5 -41.5t91 -35.5t77.5 -56.5t32 -92.5q0 -48 -27.5 -86t-75.5 -54q67 -41 67 -122q0 -75 -57.5 -117t-139.5 -42q-100 0 -180 66zM289 384l-51 18q-37 -7 -66 -36t-29 -67q0 -41 33.5 -65t98.5 -47q22 -8 40 -14q40 13 67 40t27 67q0 21 -8.5 37
t-28 28.5t-36 20t-47.5 18.5z" />
    <glyph glyph-name="dieresis" unicode="&#xa8;" horiz-adv-x="360" 
d="M122 597h-70v94h70v-94zM308 597h-70v94h70v-94z" />
    <glyph glyph-name="copyright" unicode="&#xa9;" horiz-adv-x="800" 
d="M118 332q0 -117 82.5 -201t199.5 -84t199.5 84t82.5 201t-82.5 201t-199.5 84t-199.5 -84t-82.5 -201zM287 333q0 -58 33.5 -89t86.5 -31q39 0 70 21l30 -54q-51 -28 -97 -28q-79 0 -135 50t-56 131q0 77 56 129t135 52q54 0 92 -24l-30 -52q-32 15 -65 15
q-53 0 -86.5 -33t-33.5 -87zM56 332q0 142 101 243t243 101t243 -101t101 -243t-101 -243t-243 -101t-243 101t-101 243z" />
    <glyph glyph-name="ordfeminine" unicode="&#xaa;" horiz-adv-x="377" 
d="M261 585v17q0 41 -18 61t-60 20q-50 0 -110 -27l-18 47q72 31 133 31q73 0 101 -37t28 -105v-206h-52l-3 38q-39 -46 -98 -46q-52 0 -87.5 27t-35.5 78q0 59 43.5 85t108.5 26q36 0 68 -9zM196 549q-100 0 -100 -63q0 -30 19.5 -44.5t50.5 -14.5q46 0 95 44v70
q-33 8 -65 8z" />
    <glyph glyph-name="guillemotleft" unicode="&#xab;" horiz-adv-x="528" 
d="M427 85l-147 137v101l147 137l26 -65l-127 -122l127 -122zM222 85l-147 137v101l147 137l27 -65l-128 -122l128 -122z" />
    <glyph glyph-name="logicalnot" unicode="&#xac;" 
d="M27 412h495v-276h-56v219h-439v57z" />
    <glyph glyph-name="uni00AD" unicode="&#xad;" horiz-adv-x="467" 
d="M357 242h-248v63h248v-63z" />
    <glyph glyph-name="registered" unicode="&#xae;" horiz-adv-x="578" 
d="M400 363h-58l-74 99h-17v-99h-48v245h51q68 0 95.5 -17t27.5 -56q0 -23 -13.5 -43t-37.5 -28zM327 534q0 22 -15.5 28.5t-60.5 6.5v-71q26 0 40 1.5t25 10t11 24.5zM61 488q0 94 66.5 161t161.5 67t161.5 -67t66.5 -161t-66.5 -161t-161.5 -67t-161.5 67t-66.5 161z
M111 488q0 -74 52.5 -126.5t125.5 -52.5t125.5 52.5t52.5 126.5t-52.5 126.5t-125.5 52.5t-125.5 -52.5t-52.5 -126.5z" />
    <glyph glyph-name="macron" unicode="&#xaf;" horiz-adv-x="360" 
d="M318 607h-276v58h276v-58z" />
    <glyph glyph-name="degree" unicode="&#xb0;" horiz-adv-x="464" 
d="M87 548q0 60 42.5 102.5t102.5 42.5t102.5 -42.5t42.5 -102.5t-42.5 -102.5t-102.5 -42.5t-102.5 42.5t-42.5 102.5zM141 548q0 -38 26.5 -64.5t64.5 -26.5t64.5 26.5t26.5 64.5t-26.5 64.5t-64.5 26.5t-64.5 -26.5t-26.5 -64.5z" />
    <glyph glyph-name="plusminus" unicode="&#xb1;" 
d="M245 113v214h-214v60h214v214h60v-214h214v-60h-214v-214h-60zM31 60h488v-60h-488v60z" />
    <glyph glyph-name="twosuperior" unicode="&#xb2;" horiz-adv-x="313" 
d="M44 367v50q85 97 136 173q32 49 32 81q0 23 -18 37t-43 14q-27 0 -44 -16.5t-17 -43.5l-56 12q4 43 40.5 72t80.5 29q46 0 80.5 -29.5t34.5 -75.5q0 -42 -44 -113q-19 -30 -104 -137h169v-53h-247z" />
    <glyph glyph-name="threesuperior" unicode="&#xb3;" horiz-adv-x="304" 
d="M90 544v58h13q37 0 64 14.5t27 49.5q0 24 -17.5 40t-44.5 16q-23 0 -39.5 -12.5t-20.5 -31.5l-50 21q10 35 40 55.5t69 20.5q52 0 86 -29.5t34 -77.5q0 -27 -13.5 -50.5t-31.5 -33.5q26 -10 45.5 -36t19.5 -60q0 -58 -38 -91.5t-93 -33.5q-38 0 -71 18t-51 52l49 25
q22 -42 75 -42q29 0 50 16t21 48t-23 50t-59 18q-25 0 -41 -4z" />
    <glyph glyph-name="acute" unicode="&#xb4;" horiz-adv-x="360" 
d="M287 711l-126 -153l-43 34l118 158z" />
    <glyph glyph-name="mu" unicode="&#xb5;" 
d="M488 0h-68v86q-59 -98 -174 -98q-72 0 -116 36v-274h-68v738h68v-253q0 -31 2.5 -55t10.5 -49.5t21.5 -42.5t36.5 -27.5t55 -10.5q52 0 95 32t69 82v324h68v-488z" />
    <glyph glyph-name="paragraph" unicode="&#xb6;" 
d="M492 -175h-84v875h84v-875zM344 -175h-84v463q-88 8 -150 59t-62 148q0 71 38.5 119t90.5 67t112 19h55v-875zM134 494q0 -60 36 -93t90 -40v265q-54 -7 -90 -40.5t-36 -91.5z" />
    <glyph glyph-name="periodcentered" unicode="&#xb7;" horiz-adv-x="250" 
d="M166 264h-83v101h83v-101z" />
    <glyph glyph-name="cedilla" unicode="&#xb8;" horiz-adv-x="345" 
d="M128 10l48 -10l-28 -67l3 -1q16 16 48 16q39 0 61.5 -26t22.5 -63q0 -40 -31 -69.5t-75 -29.5q-67 0 -98 54l52 26q11 -32 49 -32q20 0 32.5 14t12.5 33q0 21 -12 36t-34 15q-28 0 -42 -26l-57 31z" />
    <glyph glyph-name="onesuperior" unicode="&#xb9;" horiz-adv-x="209" 
d="M151 367h-58v334q-26 -14 -57 -28v56q49 24 79 42h36v-404z" />
    <glyph glyph-name="ordmasculine" unicode="&#xba;" horiz-adv-x="408" 
d="M204 734q72 0 121.5 -51.5t49.5 -126.5t-49.5 -126.5t-121.5 -51.5t-121.5 51.5t-49.5 126.5t49.5 126.5t121.5 51.5zM317 556q0 53 -32 88.5t-81 35.5t-81 -35.5t-32 -88.5t32 -88.5t81 -35.5t81 35.5t32 88.5z" />
    <glyph glyph-name="guillemotright" unicode="&#xbb;" horiz-adv-x="528" 
d="M101 460l147 -137v-101l-147 -137l-26 65l127 122l-127 122zM306 460l147 -137v-101l-147 -137l-27 65l128 122l-128 122z" />
    <glyph glyph-name="onequarter" unicode="&#xbc;" horiz-adv-x="716" 
d="M570 709l46 -34l-497 -684l-46 34zM215 338h-54v293q-30 -13 -51 -21v50q58 30 75 40h30v-362zM371 147q93 124 156 215h54v-220h55v-49h-55v-93h-54v93h-156v54zM527 142v138q-7 -10 -43.5 -65.5t-49.5 -72.5h93z" />
    <glyph glyph-name="onehalf" unicode="&#xbd;" horiz-adv-x="740" 
d="M570 709l46 -34l-497 -684l-46 34zM215 338h-54v293q-30 -13 -51 -21v50q58 30 75 40h30v-362zM660 0h-228v46q75 82 125 156q28 41 28 68q0 21 -15.5 33.5t-38.5 12.5t-37.5 -15.5t-14.5 -41.5l-56 11q3 40 36.5 68t75.5 28t74.5 -27t32.5 -71q0 -40 -39 -100
q-35 -52 -94 -118h151v-50z" />
    <glyph glyph-name="threequarters" unicode="&#xbe;" horiz-adv-x="777" 
d="M631 709l46 -34l-497 -684l-46 34zM149 495l1 53q32 0 48 4q46 15 46 55q0 21 -15.5 34.5t-41.5 13.5q-42 0 -53 -41l-50 20q12 32 40 51t63 19q48 0 80.5 -27t32.5 -70q0 -23 -12.5 -43.5t-30.5 -31.5q27 -10 43.5 -34t16.5 -55q0 -49 -34.5 -79t-87.5 -30
q-36 0 -67.5 17.5t-47.5 49.5l48 24q21 -42 69 -42q27 0 45 15t18 42t-21 43t-54 16q-22 0 -36 -4zM432 147q93 124 156 215h54v-220h55v-49h-55v-93h-54v93h-156v54zM588 142v138q-7 -10 -43.5 -65.5t-49.5 -72.5h93z" />
    <glyph glyph-name="questiondown" unicode="&#xbf;" horiz-adv-x="539" 
d="M237 291h75v-173q-36 -12 -59.5 -23.5t-50.5 -30t-40.5 -46t-13.5 -63.5q0 -46 35 -79.5t85 -33.5q55 0 88.5 33.5t33.5 90.5v2h70v-2q0 -81 -57.5 -135.5t-134.5 -54.5q-78 0 -134 55t-56 121q0 46 13.5 81.5t39 59.5t49.5 39t57 29v130zM233 488h84v-101h-84v101z" />
    <glyph glyph-name="Agrave" unicode="&#xc0;" horiz-adv-x="634" 
d="M15 0l270 700h67l244 -700h-83l-53 159h-308l-60 -159h-77zM315 596l-138 -369h261l-122 369h-1zM337 740l-165 116l45 56l154 -129z" />
    <glyph glyph-name="Aacute" unicode="&#xc1;" horiz-adv-x="611" 
d="M15 0l270 700h67l244 -700h-83l-53 159h-308l-60 -159h-77zM315 596l-138 -369h261l-122 369h-1zM466 856l-165 -116l-34 43l154 129z" />
    <glyph glyph-name="Acircumflex" unicode="&#xc2;" horiz-adv-x="611" 
d="M15 0l270 700h67l244 -700h-83l-53 159h-308l-60 -159h-77zM315 596l-138 -369h261l-122 369h-1zM284 899h71l104 -124l-40 -33l-100 105l-102 -105l-41 35z" />
    <glyph glyph-name="Atilde" unicode="&#xc3;" horiz-adv-x="611" 
d="M15 0l270 700h67l244 -700h-83l-53 159h-308l-60 -159h-77zM315 596l-138 -369h261l-122 369h-1zM443 865l51 6q3 -12 3 -23q0 -38 -24 -64t-64 -26q-41 0 -85 34.5t-65 34.5q-35 0 -37 -32q0 -8 1 -12l-51 -6q-3 12 -3 23q0 38 24 64t64 26q31 0 58 -17t49.5 -34.5
t42.5 -17.5q35 0 37 32q0 8 -1 12z" />
    <glyph glyph-name="Adieresis" unicode="&#xc4;" horiz-adv-x="611" 
d="M15 0l270 700h67l244 -700h-83l-53 159h-308l-60 -159h-77zM315 596l-138 -369h261l-122 369h-1zM225 765h-80v107h80v-107zM493 765h-80v107h80v-107z" />
    <glyph glyph-name="Aring" unicode="&#xc5;" horiz-adv-x="611" 
d="M15 0l270 700h67l244 -700h-83l-53 159h-308l-60 -159h-77zM315 596l-138 -369h261l-122 369h-1zM227 816q0 39 27.5 66.5t66.5 27.5t66.5 -27.5t27.5 -66.5t-27.5 -66.5t-66.5 -27.5t-66.5 27.5t-27.5 66.5zM271 816q0 -20 15 -35t35 -15t35 15t15 35t-15 35t-35 15
t-35 -15t-15 -35z" />
    <glyph glyph-name="AE" unicode="&#xc6;" horiz-adv-x="974" 
d="M903 0h-405v158h-306l-114 -158h-89l510 700h404v-68h-334v-237h334v-68h-334v-259h334v-68zM242 228h256v359z" />
    <glyph glyph-name="Ccedilla" unicode="&#xc7;" horiz-adv-x="674" 
d="M599 102l39 -57q-90 -57 -196 -57q-34 0 -59 4l-26 -59l3 -1q16 16 48 16q39 0 61.5 -26t22.5 -63q0 -40 -31 -69.5t-75 -29.5q-67 0 -98 54l52 26q11 -32 49 -32q20 0 32.5 14t12.5 33q0 21 -12 36t-33 15q-29 0 -43 -26l-57 31l43 91q-121 31 -194 124t-73 224
q0 154 110 258t268 104q97 0 175 -48l-34 -57q-68 37 -142 37q-129 0 -213.5 -83t-84.5 -211q0 -134 82 -214t217 -80q83 0 156 46z" />
    <glyph glyph-name="Egrave" unicode="&#xc8;" horiz-adv-x="580" 
d="M510 0h-407v700h407v-68h-333v-236h333v-68h-333v-260h333v-68zM339 740l-165 116l45 56l154 -129z" />
    <glyph glyph-name="Eacute" unicode="&#xc9;" horiz-adv-x="580" 
d="M510 0h-407v700h407v-68h-333v-236h333v-68h-333v-260h333v-68zM434 856l-165 -116l-34 43l154 129z" />
    <glyph glyph-name="Ecircumflex" unicode="&#xca;" horiz-adv-x="580" 
d="M510 0h-407v700h407v-68h-333v-236h333v-68h-333v-260h333v-68zM279 899h71l104 -124l-40 -33l-100 105l-102 -105l-41 35z" />
    <glyph glyph-name="Edieresis" unicode="&#xcb;" horiz-adv-x="580" 
d="M471 765h-80v107h80v-107zM237 765h-80v107h80v-107zM510 0h-407v700h407v-68h-333v-236h333v-68h-333v-260h333v-68z" />
    <glyph glyph-name="Igrave" unicode="&#xcc;" horiz-adv-x="280" 
d="M177 0h-74v700h74v-700zM173 740l-165 116l45 56l154 -129z" />
    <glyph glyph-name="Iacute" unicode="&#xcd;" horiz-adv-x="280" 
d="M177 0h-74v700h74v-700zM299 856l-165 -116l-34 43l154 129z" />
    <glyph glyph-name="Icircumflex" unicode="&#xce;" horiz-adv-x="280" 
d="M177 0h-74v700h74v-700zM106 899h71l104 -124l-40 -33l-100 105l-102 -105l-41 35z" />
    <glyph glyph-name="Idieresis" unicode="&#xcf;" horiz-adv-x="280" 
d="M297 765h-80v107h80v-107zM63 765h-80v107h80v-107zM177 0h-74v700h74v-700z" />
    <glyph glyph-name="Eth" unicode="&#xd0;" horiz-adv-x="722" 
d="M103 0v325h-72v70h72v305h182q55 0 107 -11.5t100.5 -38t84.5 -65.5t58 -99t22 -133q0 -93 -32.5 -163.5t-88.5 -110.5t-121.5 -59.5t-139.5 -19.5h-172zM578 344q0 140 -81.5 214t-230.5 74h-89v-237h124v-70h-124v-257h41q174 0 267 63t93 213z" />
    <glyph glyph-name="Ntilde" unicode="&#xd1;" horiz-adv-x="757" 
d="M650 0h-56l-417 562v-562h-70v700h55l418 -563v563h70v-700zM495 865l51 6q3 -12 3 -23q0 -38 -24 -64t-64 -26q-41 0 -85 34.5t-65 34.5q-35 0 -37 -32q0 -8 1 -12l-51 -6q-3 12 -3 23q0 38 24 64t64 26q31 0 58 -17t49.5 -34.5t42.5 -17.5q35 0 37 32q0 8 -1 12z" />
    <glyph glyph-name="Ograve" unicode="&#xd2;" horiz-adv-x="844" 
d="M700 350q0 124 -79.5 209t-198.5 85t-198.5 -85t-79.5 -209t79.5 -209t198.5 -85t198.5 85t79.5 209zM779 350q0 -151 -103 -256.5t-254 -105.5t-254 105.5t-103 256.5t103 256.5t254 105.5t254 -105.5t103 -256.5zM455 740l-165 116l45 56l154 -129z" />
    <glyph glyph-name="Oacute" unicode="&#xd3;" horiz-adv-x="844" 
d="M700 350q0 124 -79.5 209t-198.5 85t-198.5 -85t-79.5 -209t79.5 -209t198.5 -85t198.5 85t79.5 209zM779 350q0 -151 -103 -256.5t-254 -105.5t-254 105.5t-103 256.5t103 256.5t254 105.5t254 -105.5t103 -256.5zM559 856l-165 -116l-34 43l154 129z" />
    <glyph glyph-name="Ocircumflex" unicode="&#xd4;" horiz-adv-x="844" 
d="M700 350q0 124 -79.5 209t-198.5 85t-198.5 -85t-79.5 -209t79.5 -209t198.5 -85t198.5 85t79.5 209zM779 350q0 -151 -103 -256.5t-254 -105.5t-254 105.5t-103 256.5t103 256.5t254 105.5t254 -105.5t103 -256.5zM386 899h71l104 -124l-40 -33l-100 105l-102 -105
l-41 35z" />
    <glyph glyph-name="Otilde" unicode="&#xd5;" horiz-adv-x="844" 
d="M700 350q0 124 -79.5 209t-198.5 85t-198.5 -85t-79.5 -209t79.5 -209t198.5 -85t198.5 85t79.5 209zM779 350q0 -151 -103 -256.5t-254 -105.5t-254 105.5t-103 256.5t103 256.5t254 105.5t254 -105.5t103 -256.5zM553 865l51 6q3 -12 3 -23q0 -38 -24 -64t-64 -26
q-41 0 -85 34.5t-65 34.5q-35 0 -37 -32q0 -8 1 -12l-51 -6q-3 12 -3 23q0 38 24 64t64 26q31 0 58 -17t49.5 -34.5t42.5 -17.5q35 0 37 32q0 8 -1 12z" />
    <glyph glyph-name="Odieresis" unicode="&#xd6;" horiz-adv-x="844" 
d="M700 350q0 124 -79.5 209t-198.5 85t-198.5 -85t-79.5 -209t79.5 -209t198.5 -85t198.5 85t79.5 209zM779 350q0 -151 -103 -256.5t-254 -105.5t-254 105.5t-103 256.5t103 256.5t254 105.5t254 -105.5t103 -256.5zM328 765h-80v107h80v-107zM596 765h-80v107h80v-107z
" />
    <glyph glyph-name="multiply" unicode="&#xd7;" 
d="M426 116l-151 152l-151 -152l-43 43l152 151l-152 151l43 43l151 -152l151 152l43 -43l-152 -151l152 -151z" />
    <glyph glyph-name="Oslash" unicode="&#xd8;" horiz-adv-x="844" 
d="M779 350q0 -151 -103 -256.5t-254 -105.5q-99 0 -180 48l-33 -49l-55 33l36 53q-59 50 -92 122.5t-33 154.5q0 151 103 256.5t254 105.5q90 0 170 -43l27 40l55 -34l-28 -42q62 -50 97.5 -124t35.5 -159zM700 350q0 137 -95 224l-324 -480q61 -38 141 -38q119 0 198.5 85
t79.5 209zM144 350q0 -131 86 -217l323 478q-61 33 -131 33q-119 0 -198.5 -85t-79.5 -209z" />
    <glyph glyph-name="Ugrave" unicode="&#xd9;" horiz-adv-x="724" 
d="M628 700v-371q0 -169 -64.5 -255t-203.5 -86q-264 0 -264 341v371h74v-399q0 -121 50.5 -183t141.5 -62t141.5 62t50.5 183v399h74zM396 740l-165 116l45 56l154 -129z" />
    <glyph glyph-name="Uacute" unicode="&#xda;" horiz-adv-x="724" 
d="M628 700v-371q0 -169 -64.5 -255t-203.5 -86q-264 0 -264 341v371h74v-399q0 -121 50.5 -183t141.5 -62t141.5 62t50.5 183v399h74zM507 856l-165 -116l-34 43l154 129z" />
    <glyph glyph-name="Ucircumflex" unicode="&#xdb;" horiz-adv-x="724" 
d="M628 700v-371q0 -169 -64.5 -255t-203.5 -86q-264 0 -264 341v371h74v-399q0 -121 50.5 -183t141.5 -62t141.5 62t50.5 183v399h74zM335 899h71l104 -124l-40 -33l-100 105l-102 -105l-41 35z" />
    <glyph glyph-name="Udieresis" unicode="&#xdc;" horiz-adv-x="724" 
d="M628 700v-371q0 -169 -64.5 -255t-203.5 -86q-264 0 -264 341v371h74v-399q0 -121 50.5 -183t141.5 -62t141.5 62t50.5 183v399h74zM268 765h-80v107h80v-107zM536 765h-80v107h80v-107z" />
    <glyph glyph-name="Yacute" unicode="&#xdd;" horiz-adv-x="524" 
d="M519 700l-226 -401v-299h-74v313l-214 387h91l166 -313h3l169 313h85zM401 856l-165 -116l-34 43l154 129z" />
    <glyph glyph-name="Thorn" unicode="&#xde;" horiz-adv-x="604" 
d="M177 0h-74v700h74v-140h128q60 0 112 -19t90 -67t38 -119q0 -54 -21.5 -95.5t-57 -64.5t-76.5 -34.5t-85 -11.5h-128v-149zM466 353q0 64 -45.5 101.5t-120.5 37.5h-123v-275h103q186 0 186 136z" />
    <glyph glyph-name="germandbls" unicode="&#xdf;" horiz-adv-x="617" 
d="M269 441h17q62 0 106.5 36t44.5 93q0 56 -39.5 93t-99.5 37q-69 0 -106.5 -48t-37.5 -129v-523h-68v544q0 96 60 157t150 61t149.5 -55t59.5 -141q0 -43 -22.5 -81t-59.5 -60q68 -16 106 -73t38 -129q0 -99 -62 -167t-165 -68q-61 0 -115 30l31 58q40 -26 91 -26
q71 0 110.5 47.5t39.5 119.5q0 79 -51 120.5t-136 41.5h-41v62z" />
    <glyph glyph-name="agrave" unicode="&#xe0;" horiz-adv-x="534" 
d="M389 0l-5 57q-64 -69 -160 -69q-71 0 -120 39.5t-49 105.5q0 83 64 125t152 42q51 0 111 -15v27q0 126 -125 126q-83 0 -159 -42l-23 61q92 43 185 43q104 0 147 -51t43 -151v-298h-61zM382 230q-59 14 -114 14q-58 0 -101.5 -25.5t-43.5 -77.5q0 -43 29.5 -70t73.5 -27
q80 0 156 73v113zM275 558l-126 153l51 39l118 -158z" />
    <glyph glyph-name="aacute" unicode="&#xe1;" horiz-adv-x="534" 
d="M389 0l-5 57q-64 -69 -160 -69q-71 0 -120 39.5t-49 105.5q0 83 64 125t152 42q51 0 111 -15v27q0 126 -125 126q-83 0 -159 -42l-23 61q92 43 185 43q104 0 147 -51t43 -151v-298h-61zM382 230q-59 14 -114 14q-58 0 -101.5 -25.5t-43.5 -77.5q0 -43 29.5 -70t73.5 -27
q80 0 156 73v113zM380 711l-126 -153l-43 34l118 158z" />
    <glyph glyph-name="acircumflex" unicode="&#xe2;" horiz-adv-x="534" 
d="M389 0l-5 57q-64 -69 -160 -69q-71 0 -120 39.5t-49 105.5q0 83 64 125t152 42q51 0 111 -15v27q0 126 -125 126q-83 0 -159 -42l-23 61q92 43 185 43q104 0 147 -51t43 -151v-298h-61zM382 230q-59 14 -114 14q-58 0 -101.5 -25.5t-43.5 -77.5q0 -43 29.5 -70t73.5 -27
q80 0 156 73v113zM286 730l99 -142l-41 -28l-88 114l-89 -114l-43 29l99 141h63z" />
    <glyph glyph-name="atilde" unicode="&#xe3;" horiz-adv-x="534" 
d="M389 0l-5 57q-64 -69 -160 -69q-71 0 -120 39.5t-49 105.5q0 83 64 125t152 42q51 0 111 -15v27q0 126 -125 126q-83 0 -159 -42l-23 61q92 43 185 43q104 0 147 -51t43 -151v-298h-61zM382 230q-59 14 -114 14q-58 0 -101.5 -25.5t-43.5 -77.5q0 -43 29.5 -70t73.5 -27
q80 0 156 73v113zM377 680l51 6q3 -12 3 -22q0 -36 -24.5 -60.5t-65.5 -24.5q-33 0 -60.5 17t-49.5 34t-41 17q-17 0 -27.5 -9t-11.5 -24q0 -8 1 -11l-51 -6q-3 12 -3 22q0 36 24.5 60.5t65.5 24.5q31 0 58.5 -17t50 -34t42.5 -17q17 0 27.5 9t11.5 24q0 8 -1 11z" />
    <glyph glyph-name="adieresis" unicode="&#xe4;" horiz-adv-x="534" 
d="M389 0l-5 57q-64 -69 -160 -69q-71 0 -120 39.5t-49 105.5q0 83 64 125t152 42q51 0 111 -15v27q0 126 -125 126q-83 0 -159 -42l-23 61q92 43 185 43q104 0 147 -51t43 -151v-298h-61zM382 230q-59 14 -114 14q-58 0 -101.5 -25.5t-43.5 -77.5q0 -43 29.5 -70t73.5 -27
q80 0 156 73v113zM203 597h-70v94h70v-94zM389 597h-70v94h70v-94z" />
    <glyph glyph-name="aring" unicode="&#xe5;" horiz-adv-x="534" 
d="M389 0l-5 57q-64 -69 -160 -69q-71 0 -120 39.5t-49 105.5q0 83 64 125t152 42q51 0 111 -15v27q0 126 -125 126q-83 0 -159 -42l-23 61q92 43 185 43q104 0 147 -51t43 -151v-298h-61zM382 230q-59 14 -114 14q-58 0 -101.5 -25.5t-43.5 -77.5q0 -43 29.5 -70t73.5 -27
q80 0 156 73v113zM169 647q0 39 27.5 66.5t66.5 27.5t66.5 -27.5t27.5 -66.5t-27.5 -66.5t-66.5 -27.5t-66.5 27.5t-27.5 66.5zM213 647q0 -20 15 -35t35 -15t35 15t15 35t-15 35t-35 15t-35 -15t-15 -35z" />
    <glyph glyph-name="ae" unicode="&#xe6;" horiz-adv-x="880" 
d="M831 227h-385q5 -75 51.5 -128t122.5 -53q110 0 155 84l48 -31q-28 -52 -83.5 -81.5t-114.5 -29.5q-130 0 -196 95q-74 -95 -205 -95q-71 0 -120 39.5t-49 105.5q0 83 64 125t152 42q51 0 111 -15v27q0 126 -125 126q-83 0 -159 -42l-23 61q92 43 185 43q135 0 173 -94
q68 94 184 94q93 0 155 -67.5t62 -160.5q0 -18 -3 -45zM226 44q93 0 175 93q-15 42 -18 92q-57 15 -115 15t-101.5 -25.5t-43.5 -77.5q0 -43 29.5 -70t73.5 -27zM617 442q-69 0 -113.5 -43.5t-55.5 -113.5h319q-3 63 -46 110t-104 47z" />
    <glyph glyph-name="ccedilla" unicode="&#xe7;" horiz-adv-x="463" 
d="M402 82l35 -52q-62 -42 -133 -42q-10 0 -17 1l-24 -56l3 -1q16 16 48 16q39 0 61.5 -26t22.5 -63q0 -40 -31 -69.5t-75 -29.5q-67 0 -98 54l52 26q11 -32 49 -32q20 0 32.5 14t12.5 33q0 21 -12 36t-34 15q-28 0 -42 -26l-57 31l41 85q-86 21 -138 88.5t-52 159.5
q0 108 72.5 182t183.5 74q64 0 122 -33l-25 -57q-42 28 -102 28q-81 0 -131 -56.5t-50 -137.5q0 -84 50 -139t133 -55q24 0 54.5 9.5t48.5 22.5z" />
    <glyph glyph-name="egrave" unicode="&#xe8;" horiz-adv-x="548" 
d="M499 227h-385q5 -75 51.5 -128t122.5 -53q110 0 155 84l48 -31q-28 -52 -83.5 -81.5t-114.5 -29.5q-116 0 -181.5 73.5t-65.5 185.5q0 107 69.5 180t169.5 73q93 0 155 -67.5t62 -160.5q0 -18 -3 -45zM435 285q-3 63 -46 110t-104 47q-69 0 -113.5 -43.5t-55.5 -113.5
h319zM290 558l-126 153l51 39l118 -158z" />
    <glyph glyph-name="eacute" unicode="&#xe9;" horiz-adv-x="548" 
d="M499 227h-385q5 -75 51.5 -128t122.5 -53q110 0 155 84l48 -31q-28 -52 -83.5 -81.5t-114.5 -29.5q-116 0 -181.5 73.5t-65.5 185.5q0 107 69.5 180t169.5 73q93 0 155 -67.5t62 -160.5q0 -18 -3 -45zM435 285q-3 63 -46 110t-104 47q-69 0 -113.5 -43.5t-55.5 -113.5
h319zM396 711l-126 -153l-43 34l118 158z" />
    <glyph glyph-name="ecircumflex" unicode="&#xea;" horiz-adv-x="548" 
d="M499 227h-385q5 -75 51.5 -128t122.5 -53q110 0 155 84l48 -31q-28 -52 -83.5 -81.5t-114.5 -29.5q-116 0 -181.5 73.5t-65.5 185.5q0 107 69.5 180t169.5 73q93 0 155 -67.5t62 -160.5q0 -18 -3 -45zM435 285q-3 63 -46 110t-104 47q-69 0 -113.5 -43.5t-55.5 -113.5
h319zM317 730l99 -142l-41 -28l-88 114l-89 -114l-43 29l99 141h63z" />
    <glyph glyph-name="edieresis" unicode="&#xeb;" horiz-adv-x="548" 
d="M499 227h-385q5 -75 51.5 -128t122.5 -53q110 0 155 84l48 -31q-28 -52 -83.5 -81.5t-114.5 -29.5q-116 0 -181.5 73.5t-65.5 185.5q0 107 69.5 180t169.5 73q93 0 155 -67.5t62 -160.5q0 -18 -3 -45zM435 285q-3 63 -46 110t-104 47q-69 0 -113.5 -43.5t-55.5 -113.5
h319zM227 597h-70v94h70v-94zM413 597h-70v94h70v-94z" />
    <glyph glyph-name="igrave" unicode="&#xec;" horiz-adv-x="250" 
d="M126 558l-126 153l51 39l118 -158zM159 0h-68v488h68v-488z" />
    <glyph glyph-name="iacute" unicode="&#xed;" horiz-adv-x="250" 
d="M246 711l-126 -153l-43 34l118 158zM159 0h-68v488h68v-488z" />
    <glyph glyph-name="icircumflex" unicode="&#xee;" horiz-adv-x="250" 
d="M158 730l99 -142l-41 -28l-88 114l-89 -114l-43 29l99 141h63zM159 0h-68v488h68v-488z" />
    <glyph glyph-name="idieresis" unicode="&#xef;" horiz-adv-x="250" 
d="M67 597h-70v94h70v-94zM253 597h-70v94h70v-94zM159 0h-68v488h68v-488z" />
    <glyph glyph-name="eth" unicode="&#xf0;" horiz-adv-x="561" 
d="M46 235q0 90 67.5 158.5t162.5 68.5q65 0 123 -34q-52 102 -168 178l-67 -109l-49 32l65 108q-52 29 -109 53l26 60q63 -27 117 -58l62 102l49 -32l-62 -101q252 -172 252 -429q0 -102 -67 -173t-175 -71q-103 0 -165 73t-62 174zM445 238q0 52 -13 106q-68 56 -144 56
q-74 0 -123 -46t-49 -123q0 -76 46 -128.5t121 -52.5q82 0 122 53t40 135z" />
    <glyph glyph-name="ntilde" unicode="&#xf1;" horiz-adv-x="601" 
d="M91 488h68v-86q59 98 174 98q100 0 142 -59.5t42 -176.5v-264h-68v253q0 31 -2.5 55t-10.5 49.5t-21.5 42.5t-36.5 27.5t-55 10.5q-52 0 -95 -32t-69 -82v-324h-68v488zM421 680l51 6q3 -12 3 -22q0 -36 -24.5 -60.5t-65.5 -24.5q-33 0 -60.5 17t-49.5 34t-41 17
q-17 0 -27.5 -9t-11.5 -24q0 -8 1 -11l-51 -6q-3 12 -3 22q0 36 24.5 60.5t65.5 24.5q32 0 59 -17t49.5 -34t42.5 -17q17 0 27.5 9t11.5 24q0 8 -1 11z" />
    <glyph glyph-name="ograve" unicode="&#xf2;" horiz-adv-x="584" 
d="M292 500q107 0 176.5 -74t69.5 -182t-69.5 -182t-176.5 -74t-176.5 74t-69.5 182t69.5 182t176.5 74zM468 244q0 80 -48.5 137t-127.5 57t-127.5 -57t-48.5 -137t48.5 -137t127.5 -57t127.5 57t48.5 137zM296 558l-126 153l51 39l118 -158z" />
    <glyph glyph-name="oacute" unicode="&#xf3;" horiz-adv-x="584" 
d="M292 500q107 0 176.5 -74t69.5 -182t-69.5 -182t-176.5 -74t-176.5 74t-69.5 182t69.5 182t176.5 74zM468 244q0 80 -48.5 137t-127.5 57t-127.5 -57t-48.5 -137t48.5 -137t127.5 -57t127.5 57t48.5 137zM433 711l-126 -153l-43 34l118 158z" />
    <glyph glyph-name="ocircumflex" unicode="&#xf4;" horiz-adv-x="584" 
d="M292 500q107 0 176.5 -74t69.5 -182t-69.5 -182t-176.5 -74t-176.5 74t-69.5 182t69.5 182t176.5 74zM468 244q0 80 -48.5 137t-127.5 57t-127.5 -57t-48.5 -137t48.5 -137t127.5 -57t127.5 57t48.5 137zM324 730l99 -142l-41 -28l-88 114l-89 -114l-43 29l99 141h63z
" />
    <glyph glyph-name="otilde" unicode="&#xf5;" horiz-adv-x="584" 
d="M292 500q107 0 176.5 -74t69.5 -182t-69.5 -182t-176.5 -74t-176.5 74t-69.5 182t69.5 182t176.5 74zM468 244q0 80 -48.5 137t-127.5 57t-127.5 -57t-48.5 -137t48.5 -137t127.5 -57t127.5 57t48.5 137zM411 680l51 6q3 -12 3 -22q0 -36 -24.5 -60.5t-65.5 -24.5
q-33 0 -60.5 17t-49.5 34t-41 17q-17 0 -27.5 -9t-11.5 -24q0 -8 1 -11l-51 -6q-3 12 -3 22q0 36 24.5 60.5t65.5 24.5q31 0 58.5 -17t50 -34t42.5 -17q17 0 27.5 9t11.5 24q0 8 -1 11z" />
    <glyph glyph-name="odieresis" unicode="&#xf6;" horiz-adv-x="584" 
d="M292 500q107 0 176.5 -74t69.5 -182t-69.5 -182t-176.5 -74t-176.5 74t-69.5 182t69.5 182t176.5 74zM468 244q0 80 -48.5 137t-127.5 57t-127.5 -57t-48.5 -137t48.5 -137t127.5 -57t127.5 57t48.5 137zM235 597h-70v94h70v-94zM421 597h-70v94h70v-94z" />
    <glyph glyph-name="divide" unicode="&#xf7;" 
d="M317 387h-83v101h83v-101zM317 0h-83v101h83v-101zM519 214h-488v60h488v-60z" />
    <glyph glyph-name="oslash" unicode="&#xf8;" horiz-adv-x="584" 
d="M292 500q62 0 117 -29l25 37l46 -29l-26 -39q84 -74 84 -196q0 -108 -69.5 -182t-176.5 -74q-68 0 -124 32l-25 -37l-45 29l27 40q-79 74 -79 192q0 108 69.5 182t176.5 74zM468 244q0 84 -52 141l-212 -312q38 -23 88 -23q79 0 127.5 57t48.5 137zM116 244
q0 -80 47 -136l210 310q-37 20 -81 20q-79 0 -127.5 -57t-48.5 -137z" />
    <glyph glyph-name="ugrave" unicode="&#xf9;" horiz-adv-x="601" 
d="M510 0h-68v86q-59 -98 -174 -98q-100 0 -142 59.5t-42 176.5v264h68v-253q0 -31 2.5 -55t10.5 -49.5t21.5 -42.5t36.5 -27.5t55 -10.5q52 0 95 32t69 82v324h68v-488zM311 558l-126 153l51 39l118 -158z" />
    <glyph glyph-name="uacute" unicode="&#xfa;" horiz-adv-x="601" 
d="M510 0h-68v86q-59 -98 -174 -98q-100 0 -142 59.5t-42 176.5v264h68v-253q0 -31 2.5 -55t10.5 -49.5t21.5 -42.5t36.5 -27.5t55 -10.5q52 0 95 32t69 82v324h68v-488zM423 711l-126 -153l-43 34l118 158z" />
    <glyph glyph-name="ucircumflex" unicode="&#xfb;" horiz-adv-x="601" 
d="M510 0h-68v86q-59 -98 -174 -98q-100 0 -142 59.5t-42 176.5v264h68v-253q0 -31 2.5 -55t10.5 -49.5t21.5 -42.5t36.5 -27.5t55 -10.5q52 0 95 32t69 82v324h68v-488zM333 730l99 -142l-41 -28l-88 114l-89 -114l-43 29l99 141h63z" />
    <glyph glyph-name="udieresis" unicode="&#xfc;" horiz-adv-x="601" 
d="M510 0h-68v86q-59 -98 -174 -98q-100 0 -142 59.5t-42 176.5v264h68v-253q0 -31 2.5 -55t10.5 -49.5t21.5 -42.5t36.5 -27.5t55 -10.5q52 0 95 32t69 82v324h68v-488zM241 597h-70v94h70v-94zM427 597h-70v94h70v-94z" />
    <glyph glyph-name="yacute" unicode="&#xfd;" horiz-adv-x="456" 
d="M12 488h74l138 -413l147 413h73l-265 -711l-58 23l65 176zM358 711l-126 -153l-43 34l118 158z" />
    <glyph glyph-name="thorn" unicode="&#xfe;" horiz-adv-x="612" 
d="M159 750v-325q57 75 157 75q106 0 178 -74.5t72 -179.5q0 -106 -72.5 -182t-178.5 -76q-91 0 -156 60v-310h-68v1012h68zM314 438q-46 0 -90.5 -25t-64.5 -67v-219q27 -35 70 -56t85 -21q78 0 130 56.5t52 135.5q0 81 -51.5 138.5t-130.5 57.5z" />
    <glyph glyph-name="ydieresis" unicode="&#xff;" horiz-adv-x="456" 
d="M12 488h74l138 -413l147 413h73l-265 -711l-58 23l65 176zM172 597h-70v94h70v-94zM358 597h-70v94h70v-94z" />
    <glyph glyph-name="Amacron" unicode="&#x100;" horiz-adv-x="611" 
d="M15 0l270 700h67l244 -700h-83l-53 159h-308l-60 -159h-77zM315 596l-138 -369h261l-122 369h-1zM470 775h-313v59h313v-59z" />
    <glyph glyph-name="amacron" unicode="&#x101;" horiz-adv-x="534" 
d="M389 0l-5 57q-64 -69 -160 -69q-71 0 -120 39.5t-49 105.5q0 83 64 125t152 42q51 0 111 -15v27q0 126 -125 126q-83 0 -159 -42l-23 61q92 43 185 43q104 0 147 -51t43 -151v-298h-61zM382 230q-59 14 -114 14q-58 0 -101.5 -25.5t-43.5 -77.5q0 -43 29.5 -70t73.5 -27
q80 0 156 73v113zM398 607h-276v58h276v-58z" />
    <glyph glyph-name="Abreve" unicode="&#x102;" horiz-adv-x="611" 
d="M15 0l270 700h67l244 -700h-83l-53 159h-308l-60 -159h-77zM315 596l-138 -369h261l-122 369h-1zM317 810q34 0 57 20t23 54v5h55v-6q0 -54 -39 -91t-96 -37q-60 0 -97.5 36.5t-37.5 91.5v6h57v-5q0 -34 22 -54t56 -20z" />
    <glyph glyph-name="abreve" unicode="&#x103;" horiz-adv-x="534" 
d="M389 0l-5 57q-64 -69 -160 -69q-71 0 -120 39.5t-49 105.5q0 83 64 125t152 42q51 0 111 -15v27q0 126 -125 126q-83 0 -159 -42l-23 61q92 43 185 43q104 0 147 -51t43 -151v-298h-61zM382 230q-59 14 -114 14q-58 0 -101.5 -25.5t-43.5 -77.5q0 -43 29.5 -70t73.5 -27
q80 0 156 73v113zM400 715v-13q0 -56 -38.5 -95t-94.5 -39q-60 0 -96.5 38.5t-36.5 95.5v13h52v-13q0 -36 23 -59.5t58 -23.5q36 0 60.5 23.5t24.5 59.5v13h48z" />
    <glyph glyph-name="Aogonek" unicode="&#x104;" horiz-adv-x="611" 
d="M15 0l269 700h69l243 -700q-110 -37 -110 -109q0 -59 51 -59q24 0 48 19l30 -40q-34 -31 -89 -31q-46 0 -76 28t-30 71q0 82 90 124l-52 156h-304l-60 -159h-79zM316 588l-137 -361h257l-119 361h-1z" />
    <glyph glyph-name="aogonek" unicode="&#x105;" horiz-adv-x="534" 
d="M450 298v-303q-114 -39 -114 -114q0 -49 45 -49q22 0 46 19l30 -40q-34 -31 -87 -31q-45 0 -72.5 27t-27.5 68q0 89 118 135l-4 47q-64 -69 -160 -69q-71 0 -120 39.5t-49 105.5q0 83 64 125t152 42q51 0 111 -15v27q0 126 -125 126q-83 0 -159 -42l-23 61q92 43 185 43
q104 0 147 -51t43 -151zM382 230q-59 14 -114 14q-58 0 -101.5 -25.5t-43.5 -77.5q0 -43 29.5 -70t73.5 -27q80 0 156 73v113z" />
    <glyph glyph-name="Cacute" unicode="&#x106;" horiz-adv-x="674" 
d="M599 102l39 -57q-90 -57 -196 -57q-163 0 -270 101t-107 261q0 154 110 258t268 104q97 0 175 -48l-34 -57q-68 37 -142 37q-129 0 -213.5 -83t-84.5 -211q0 -134 82 -214t217 -80q83 0 156 46zM560 856l-165 -116l-34 43l154 129z" />
    <glyph glyph-name="cacute" unicode="&#x107;" horiz-adv-x="463" 
d="M402 82l35 -52q-62 -42 -133 -42q-113 0 -185.5 73t-72.5 183q0 108 72.5 182t183.5 74q64 0 122 -33l-25 -57q-42 28 -102 28q-81 0 -131 -56.5t-50 -137.5q0 -84 50 -139t133 -55q24 0 54.5 9.5t48.5 22.5zM421 711l-126 -153l-43 34l118 158z" />
    <glyph glyph-name="Ccircumflex" unicode="&#x108;" horiz-adv-x="674" 
d="M599 102l39 -57q-90 -57 -196 -57q-163 0 -270 101t-107 261q0 154 110 258t268 104q97 0 175 -48l-34 -57q-68 37 -142 37q-129 0 -213.5 -83t-84.5 -211q0 -134 82 -214t217 -80q83 0 156 46zM390 899h71l104 -124l-40 -33l-100 105l-102 -105l-41 35z" />
    <glyph glyph-name="ccircumflex" unicode="&#x109;" horiz-adv-x="463" 
d="M402 82l35 -52q-62 -42 -133 -42q-113 0 -185.5 73t-72.5 183q0 108 72.5 182t183.5 74q64 0 122 -33l-25 -57q-42 28 -102 28q-81 0 -131 -56.5t-50 -137.5q0 -84 50 -139t133 -55q24 0 54.5 9.5t48.5 22.5zM319 730l99 -142l-41 -28l-88 114l-89 -114l-43 29l99 141h63
z" />
    <glyph glyph-name="Cdotaccent" unicode="&#x10a;" horiz-adv-x="674" 
d="M599 102l39 -57q-90 -57 -196 -57q-163 0 -270 101t-107 261q0 154 110 258t268 104q97 0 175 -48l-34 -57q-68 37 -142 37q-129 0 -213.5 -83t-84.5 -211q0 -134 82 -214t217 -80q83 0 156 46zM458 765h-80v107h80v-107z" />
    <glyph glyph-name="cdotaccent" unicode="&#x10b;" horiz-adv-x="463" 
d="M402 82l35 -52q-62 -42 -133 -42q-113 0 -185.5 73t-72.5 183q0 108 72.5 182t183.5 74q64 0 122 -33l-25 -57q-42 28 -102 28q-81 0 -131 -56.5t-50 -137.5q0 -84 50 -139t133 -55q24 0 54.5 9.5t48.5 22.5zM312 597h-70v94h70v-94z" />
    <glyph glyph-name="Ccaron" unicode="&#x10c;" horiz-adv-x="674" 
d="M599 102l39 -57q-90 -57 -196 -57q-163 0 -270 101t-107 261q0 154 110 258t268 104q97 0 175 -48l-34 -57q-68 37 -142 37q-129 0 -213.5 -83t-84.5 -211q0 -134 82 -214t217 -80q83 0 156 46zM463 753h-72l-105 122l42 35l100 -103l102 103l41 -35z" />
    <glyph glyph-name="ccaron" unicode="&#x10d;" horiz-adv-x="463" 
d="M402 82l35 -52q-62 -42 -133 -42q-113 0 -185.5 73t-72.5 183q0 108 72.5 182t183.5 74q64 0 122 -33l-25 -57q-42 28 -102 28q-81 0 -131 -56.5t-50 -137.5q0 -84 50 -139t133 -55q24 0 54.5 9.5t48.5 22.5zM415 711l-99 -142h-63l-99 141l43 29l89 -114l88 114z" />
    <glyph glyph-name="Dcaron" unicode="&#x10e;" horiz-adv-x="722" 
d="M103 0v700h182q55 0 107 -11.5t100.5 -38t84.5 -65.5t58 -99t22 -133q0 -93 -32.5 -163.5t-88.5 -110.5t-121.5 -59.5t-139.5 -19.5h-172zM177 68h41q174 0 267 63t93 213q0 140 -81.5 214t-230.5 74h-89v-564zM363 753h-72l-105 122l42 35l100 -103l102 103l41 -35z" />
    <glyph glyph-name="dcaron" unicode="&#x10f;" horiz-adv-x="612" 
d="M453 0v63q-57 -75 -157 -75q-106 0 -178 74.5t-72 179.5q0 106 72.5 182t178.5 76q91 0 156 -60v310h68v-750h-68zM453 142v219q-27 35 -70 56t-85 21q-78 0 -130 -56.5t-52 -135.5q0 -81 51.5 -138.5t130.5 -57.5q46 0 90.5 25t64.5 67zM608 549h-57l41 201h70z" />
    <glyph glyph-name="Dcroat" unicode="&#x110;" horiz-adv-x="722" 
d="M103 0v325h-72v70h72v305h182q55 0 107 -11.5t100.5 -38t84.5 -65.5t58 -99t22 -133q0 -93 -32.5 -163.5t-88.5 -110.5t-121.5 -59.5t-139.5 -19.5h-172zM578 344q0 140 -81.5 214t-230.5 74h-89v-237h124v-70h-124v-257h41q174 0 267 63t93 213z" />
    <glyph glyph-name="dcroat" unicode="&#x111;" horiz-adv-x="612" 
d="M298 50q46 0 90.5 25t64.5 67v219q-27 35 -70 56t-85 21q-78 0 -130 -56.5t-52 -135.5q0 -81 51.5 -138.5t130.5 -57.5zM453 0v63q-57 -75 -157 -75q-106 0 -178 74.5t-72 179.5q0 106 72.5 182t178.5 76q91 0 156 -60v148h-166v62h166v100h68v-100h70v-62h-70v-588h-68z
" />
    <glyph glyph-name="Emacron" unicode="&#x112;" horiz-adv-x="580" 
d="M510 0h-407v700h407v-68h-333v-236h333v-68h-333v-260h333v-68zM471 775h-313v59h313v-59z" />
    <glyph glyph-name="emacron" unicode="&#x113;" horiz-adv-x="548" 
d="M499 227h-385q5 -75 51.5 -128t122.5 -53q110 0 155 84l48 -31q-28 -52 -83.5 -81.5t-114.5 -29.5q-116 0 -181.5 73.5t-65.5 185.5q0 107 69.5 180t169.5 73q93 0 155 -67.5t62 -160.5q0 -18 -3 -45zM435 285q-3 63 -46 110t-104 47q-69 0 -113.5 -43.5t-55.5 -113.5
h319zM422 607h-276v58h276v-58z" />
    <glyph glyph-name="Ebreve" unicode="&#x114;" horiz-adv-x="580" 
d="M510 0h-407v700h407v-68h-333v-236h333v-68h-333v-260h333v-68zM322 810q34 0 57 20t23 54v5h55v-6q0 -54 -39 -91t-96 -37q-60 0 -97.5 36.5t-37.5 91.5v6h57v-5q0 -34 22 -54t56 -20z" />
    <glyph glyph-name="ebreve" unicode="&#x115;" horiz-adv-x="548" 
d="M499 227h-385q5 -75 51.5 -128t122.5 -53q110 0 155 84l48 -31q-28 -52 -83.5 -81.5t-114.5 -29.5q-116 0 -181.5 73.5t-65.5 185.5q0 107 69.5 180t169.5 73q93 0 155 -67.5t62 -160.5q0 -18 -3 -45zM435 285q-3 63 -46 110t-104 47q-69 0 -113.5 -43.5t-55.5 -113.5
h319zM417 715v-13q0 -56 -38.5 -95t-94.5 -39q-60 0 -96.5 38.5t-36.5 95.5v13h52v-13q0 -36 23 -59.5t58 -23.5q36 0 60.5 23.5t24.5 59.5v13h48z" />
    <glyph glyph-name="Edotaccent" unicode="&#x116;" horiz-adv-x="580" 
d="M510 0h-407v700h407v-68h-333v-236h333v-68h-333v-260h333v-68zM356 765h-80v107h80v-107z" />
    <glyph glyph-name="edotaccent" unicode="&#x117;" horiz-adv-x="548" 
d="M499 227h-385q5 -75 51.5 -128t122.5 -53q110 0 155 84l48 -31q-28 -52 -83.5 -81.5t-114.5 -29.5q-116 0 -181.5 73.5t-65.5 185.5q0 107 69.5 180t169.5 73q93 0 155 -67.5t62 -160.5q0 -18 -3 -45zM435 285q-3 63 -46 110t-104 47q-69 0 -113.5 -43.5t-55.5 -113.5
h319zM313 597h-70v94h70v-94z" />
    <glyph glyph-name="Eogonek" unicode="&#x118;" horiz-adv-x="580" 
d="M510 0q-125 -35 -125 -109q0 -26 13 -42.5t38 -16.5q24 0 48 19l30 -40q-34 -31 -89 -31q-45 0 -75.5 29t-30.5 70q0 81 89 121h-305v700h407v-68h-333v-236h333v-68h-333v-260h333v-68z" />
    <glyph glyph-name="eogonek" unicode="&#x119;" horiz-adv-x="548" 
d="M499 227h-385q5 -75 51.5 -128t122.5 -53q110 0 155 84l48 -31q-28 -53 -89 -85q-105 -56 -105 -127q0 -25 13 -40t38 -15q24 0 48 19l30 -40q-34 -31 -89 -31q-46 0 -76 28t-30 71q0 65 69 109h-7q-116 0 -181.5 73.5t-65.5 185.5q0 107 69.5 180t169.5 73
q93 0 155 -67.5t62 -160.5q0 -18 -3 -45zM435 285q-3 63 -46 110t-104 47q-69 0 -113.5 -43.5t-55.5 -113.5h319z" />
    <glyph glyph-name="Ecaron" unicode="&#x11a;" horiz-adv-x="580" 
d="M510 0h-407v700h407v-68h-333v-236h333v-68h-333v-260h333v-68zM349 753h-72l-105 122l42 35l100 -103l102 103l41 -35z" />
    <glyph glyph-name="ecaron" unicode="&#x11b;" horiz-adv-x="548" 
d="M499 227h-385q5 -75 51.5 -128t122.5 -53q110 0 155 84l48 -31q-28 -52 -83.5 -81.5t-114.5 -29.5q-116 0 -181.5 73.5t-65.5 185.5q0 107 69.5 180t169.5 73q93 0 155 -67.5t62 -160.5q0 -18 -3 -45zM435 285q-3 63 -46 110t-104 47q-69 0 -113.5 -43.5t-55.5 -113.5
h319zM414 711l-99 -142h-63l-99 141l43 29l89 -114l88 114z" />
    <glyph glyph-name="Gcircumflex" unicode="&#x11c;" horiz-adv-x="808" 
d="M647 310h-183v68h257v-260q-49 -60 -122.5 -95t-156.5 -35q-163 0 -270 101t-107 261q0 154 110 258t268 104q75 0 143 -32t117 -86l-54 -42q-38 42 -93 67t-114 25q-129 0 -213.5 -83t-84.5 -211q0 -134 82 -214t217 -80q122 0 204 77v177zM403 899h71l104 -124l-40 -33
l-100 105l-102 -105l-41 35z" />
    <glyph glyph-name="gcircumflex" unicode="&#x11d;" horiz-adv-x="605" 
d="M521 488v-460q0 -122 -70.5 -185t-175.5 -63q-111 0 -214 69l28 57q34 -27 84.5 -45.5t100.5 -18.5q76 0 127.5 40.5t51.5 124.5v68q-57 -75 -157 -75q-106 0 -178 73.5t-72 174.5q0 102 73 177t178 75q91 0 156 -60v48h68zM453 154v207q-27 35 -70 56t-85 21
q-78 0 -130 -55.5t-52 -130.5q0 -76 52 -133t130 -57q46 0 90.5 25t64.5 67zM329 730l99 -142l-41 -28l-88 114l-89 -114l-43 29l99 141h63z" />
    <glyph glyph-name="Gbreve" unicode="&#x11e;" horiz-adv-x="808" 
d="M647 310h-183v68h257v-260q-49 -60 -122.5 -95t-156.5 -35q-163 0 -270 101t-107 261q0 154 110 258t268 104q75 0 143 -32t117 -86l-54 -42q-38 42 -93 67t-114 25q-129 0 -213.5 -83t-84.5 -211q0 -134 82 -214t217 -80q122 0 204 77v177zM435 810q34 0 57 20t23 54v5
h55v-6q0 -54 -39 -91t-96 -37q-60 0 -97.5 36.5t-37.5 91.5v6h57v-5q0 -34 22 -54t56 -20z" />
    <glyph glyph-name="gbreve" unicode="&#x11f;" horiz-adv-x="605" 
d="M521 488v-460q0 -122 -70.5 -185t-175.5 -63q-111 0 -214 69l28 57q34 -27 84.5 -45.5t100.5 -18.5q76 0 127.5 40.5t51.5 124.5v68q-57 -75 -157 -75q-106 0 -178 73.5t-72 174.5q0 102 73 177t178 75q91 0 156 -60v48h68zM453 154v207q-27 35 -70 56t-85 21
q-78 0 -130 -55.5t-52 -130.5q0 -76 52 -133t130 -57q46 0 90.5 25t64.5 67zM432 715v-13q0 -56 -38.5 -95t-94.5 -39q-60 0 -96.5 38.5t-36.5 95.5v13h52v-13q0 -36 23 -59.5t58 -23.5q36 0 60.5 23.5t24.5 59.5v13h48z" />
    <glyph glyph-name="Gdotaccent" unicode="&#x120;" horiz-adv-x="808" 
d="M647 310h-183v68h257v-260q-49 -60 -122.5 -95t-156.5 -35q-163 0 -270 101t-107 261q0 154 110 258t268 104q75 0 143 -32t117 -86l-54 -42q-38 42 -93 67t-114 25q-129 0 -213.5 -83t-84.5 -211q0 -134 82 -214t217 -80q122 0 204 77v177zM463 765h-80v107h80v-107z
" />
    <glyph glyph-name="gdotaccent" unicode="&#x121;" horiz-adv-x="605" 
d="M521 488v-460q0 -122 -70.5 -185t-175.5 -63q-111 0 -214 69l28 57q34 -27 84.5 -45.5t100.5 -18.5q76 0 127.5 40.5t51.5 124.5v68q-57 -75 -157 -75q-106 0 -178 73.5t-72 174.5q0 102 73 177t178 75q91 0 156 -60v48h68zM453 154v207q-27 35 -70 56t-85 21
q-78 0 -130 -55.5t-52 -130.5q0 -76 52 -133t130 -57q46 0 90.5 25t64.5 67zM331 597h-70v94h70v-94z" />
    <glyph glyph-name="Gcommaaccent" unicode="&#x122;" horiz-adv-x="808" 
d="M647 310h-183v68h257v-260q-49 -60 -122.5 -95t-156.5 -35q-163 0 -270 101t-107 261q0 154 110 258t268 104q75 0 143 -32t117 -86l-54 -42q-38 42 -93 67t-114 25q-129 0 -213.5 -83t-84.5 -211q0 -134 82 -214t217 -80q122 0 204 77v177zM446 -59l-46 -166h-56l34 166
h68z" />
    <glyph glyph-name="gcommaaccent" unicode="&#x123;" horiz-adv-x="605" 
d="M521 488v-460q0 -122 -70.5 -185t-175.5 -63q-111 0 -214 69l28 57q34 -27 84.5 -45.5t100.5 -18.5q76 0 127.5 40.5t51.5 124.5v68q-57 -75 -157 -75q-106 0 -178 73.5t-72 174.5q0 102 73 177t178 75q91 0 156 -60v48h68zM453 154v207q-27 35 -70 56t-85 21
q-78 0 -130 -55.5t-52 -130.5q0 -76 52 -133t130 -57q46 0 90.5 25t64.5 67zM272 565l48 171h56l-36 -171h-68z" />
    <glyph glyph-name="Hcircumflex" unicode="&#x124;" horiz-adv-x="758" 
d="M655 0h-74v330h-404v-330h-74v700h74v-302h404v302h74v-700zM345 899h71l104 -124l-40 -33l-100 105l-102 -105l-41 35z" />
    <glyph glyph-name="hcircumflex" unicode="&#x125;" horiz-adv-x="601" 
d="M159 750v-348q59 98 174 98q100 0 142 -59.5t42 -176.5v-264h-68v253q0 31 -2.5 55t-10.5 49.5t-21.5 42.5t-36.5 27.5t-55 10.5q-52 0 -95 -32t-69 -82v-324h-68v750h68zM91 909h71l104 -124l-40 -33l-100 105l-102 -105l-41 35z" />
    <glyph glyph-name="Hbar" unicode="&#x126;" horiz-adv-x="758" 
d="M655 0h-74v330h-404v-330h-74v524h-88v64h88v112h74v-112h404v112h74v-112h88v-64h-88v-524zM177 398h404v126h-404v-126z" />
    <glyph glyph-name="hbar" unicode="&#x127;" horiz-adv-x="601" 
d="M159 402q59 98 174 98q100 0 142 -59.5t42 -176.5v-264h-68v253q0 31 -2.5 55t-10.5 49.5t-21.5 42.5t-36.5 27.5t-55 10.5q-52 0 -95 -32t-69 -82v-324h-68v588h-70v62h70v100h68v-100h166v-62h-166v-186z" />
    <glyph glyph-name="Itilde" unicode="&#x128;" horiz-adv-x="280" 
d="M177 0h-74v700h74v-700zM250 865l51 6q3 -12 3 -23q0 -38 -24 -64t-64 -26q-26 0 -49 11t-37 23.5t-31 23.5t-33 11q-35 0 -37 -32q0 -8 1 -12l-51 -6q-3 12 -3 23q0 38 24 64t64 26q31 0 58 -17t49.5 -34.5t42.5 -17.5q35 0 37 32q0 8 -1 12z" />
    <glyph glyph-name="itilde" unicode="&#x129;" horiz-adv-x="250" 
d="M159 0h-68v488h68v-488zM237 680l51 6q3 -12 3 -22q0 -36 -24.5 -60.5t-65.5 -24.5q-33 0 -60.5 17t-49.5 34t-41 17q-17 0 -27.5 -9t-11.5 -24q0 -8 1 -11l-51 -6q-3 12 -3 22q0 36 24.5 60.5t65.5 24.5q31 0 58.5 -17t50 -34t42.5 -17q17 0 27.5 9t11.5 24q0 8 -1 11z
" />
    <glyph glyph-name="Imacron" unicode="&#x12a;" horiz-adv-x="280" 
d="M177 0h-74v700h74v-700zM297 775h-313v59h313v-59z" />
    <glyph glyph-name="imacron" unicode="&#x12b;" horiz-adv-x="250" 
d="M159 0h-68v488h68v-488zM263 607h-276v58h276v-58z" />
    <glyph glyph-name="Ibreve" unicode="&#x12c;" horiz-adv-x="280" 
d="M177 0h-74v700h74v-700zM140 810q34 0 57 20t23 54v5h55v-6q0 -54 -39 -91t-96 -37q-60 0 -97.5 36.5t-37.5 91.5v6h57v-5q0 -34 22 -54t56 -20z" />
    <glyph glyph-name="ibreve" unicode="&#x12d;" horiz-adv-x="250" 
d="M159 0h-68v488h68v-488zM258 715v-13q0 -56 -38.5 -95t-94.5 -39q-60 0 -96.5 38.5t-36.5 95.5v13h52v-13q0 -36 23 -59.5t58 -23.5q36 0 60.5 23.5t24.5 59.5v13h48z" />
    <glyph glyph-name="Iogonek" unicode="&#x12e;" horiz-adv-x="280" 
d="M177 0q-48 -19 -72.5 -49t-24.5 -64q0 -55 51 -55q24 0 48 19l30 -40q-34 -31 -89 -31q-46 0 -76 27t-30 68q0 86 89 128v697h74v-700z" />
    <glyph glyph-name="iogonek" unicode="&#x12f;" horiz-adv-x="250" 
d="M159 488v-488q-95 -37 -95 -113q0 -55 51 -55q24 0 48 19l30 -40q-34 -31 -89 -31q-46 0 -76 27t-30 68q0 42 24 76.5t69 55.5v481h68zM159 597h-68v94h68v-94z" />
    <glyph glyph-name="Idotaccent" unicode="&#x130;" horiz-adv-x="280" 
d="M177 0h-74v700h74v-700zM180 765h-80v107h80v-107z" />
    <glyph glyph-name="dotlessi" unicode="&#x131;" horiz-adv-x="250" 
d="M159 0h-68v488h68v-488z" />
    <glyph glyph-name="IJ" unicode="&#x132;" horiz-adv-x="635" 
d="M174 0h-71v700h71v-700zM537 700v-528q0 -74 -25 -124q-38 -60 -132 -60q-30 0 -86 17l17 60q27 -11 56 -11q60 0 78 25q21 25 21 104v517h71z" />
    <glyph glyph-name="ij" unicode="&#x133;" horiz-adv-x="505" 
d="M156 0h-64v486h64v-486zM156 597h-64v92h64v-92zM413 597h-64v92h64v-92zM413 486v-534q0 -51 -4 -77q-26 -94 -125 -94q-55 0 -87 22l20 54q24 -15 53 -15q50 0 64.5 32.5t14.5 99.5v512h64z" />
    <glyph glyph-name="Jcircumflex" unicode="&#x134;" horiz-adv-x="334" 
d="M242 700v-527q0 -90 -35.5 -137.5t-122.5 -47.5q-37 0 -88 17l18 63q29 -12 57 -12q61 0 79 28.5t18 99.5v516h74zM171 899h71l104 -124l-40 -33l-100 105l-102 -105l-41 35z" />
    <glyph glyph-name="jcircumflex" unicode="&#x135;" horiz-adv-x="257" 
d="M-53 -198l21 56q27 -16 53 -16q42 0 60 24t18 107v515h68v-521q0 -95 -33 -139q-35 -48 -102 -48q-46 0 -85 22zM166 730l99 -142l-41 -28l-88 114l-89 -114l-43 29l99 141h63z" />
    <glyph glyph-name="Kcommaaccent" unicode="&#x136;" horiz-adv-x="611" 
d="M589 700l-230 -275l248 -425h-87l-212 365l-131 -158v-207h-74v700h74v-386l321 386h91zM367 -59l-46 -166h-56l34 166h68z" />
    <glyph glyph-name="kcommaaccent" unicode="&#x137;" horiz-adv-x="493" 
d="M462 488l-166 -196l190 -292h-83l-153 237l-91 -107v-130h-68v750h68v-527l2 -1l220 266h81zM301 -59l-46 -166h-56l34 166h68z" />
    <glyph glyph-name="kgreenlandic" unicode="&#x138;" horiz-adv-x="493" 
d="M462 488l-166 -196l190 -292h-83l-153 237l-91 -107v-130h-68v488h68v-265l2 -1l220 266h81z" />
    <glyph glyph-name="Lacute" unicode="&#x139;" horiz-adv-x="494" 
d="M489 0h-386v700h74v-632h312v-68zM299 856l-165 -116l-34 43l154 129z" />
    <glyph glyph-name="lacute" unicode="&#x13a;" horiz-adv-x="250" 
d="M274 907l-159 -118l-34 44l154 124zM159 750v-750h-68v750h68z" />
    <glyph glyph-name="Lcommaaccent" unicode="&#x13b;" horiz-adv-x="494" 
d="M293 -262h-60l42 203h72zM489 0h-386v700h74v-632h312v-68z" />
    <glyph glyph-name="lcommaaccent" unicode="&#x13c;" horiz-adv-x="250" 
d="M159 750v-750h-68v750h68zM156 -59l-46 -166h-56l34 166h68z" />
    <glyph glyph-name="Lcaron" unicode="&#x13d;" horiz-adv-x="494" 
d="M489 0h-386v700h74v-632h312v-68zM304 499h-57l41 201h70z" />
    <glyph glyph-name="lcaron" unicode="&#x13e;" horiz-adv-x="250" 
d="M159 750v-750h-68v750h68zM242 549h-57l41 201h70z" />
    <glyph glyph-name="Ldot" unicode="&#x13f;" horiz-adv-x="494" 
d="M489 0h-386v700h74v-632h312v-68zM385 318h-80v107h80v-107z" />
    <glyph glyph-name="ldot" unicode="&#x140;" horiz-adv-x="268" 
d="M159 750v-750h-68v750h68zM281 325h-70v94h70v-94z" />
    <glyph glyph-name="Lslash" unicode="&#x141;" horiz-adv-x="494" 
d="M489 0h-386v294l-92 -60v68l92 60v338h74v-300l153 100v-68l-153 -100v-264h312v-68z" />
    <glyph glyph-name="lslash" unicode="&#x142;" horiz-adv-x="250" 
d="M159 750v-312l70 44v-67l-70 -44v-371h-68v338l-71 -44v67l71 44v345h68z" />
    <glyph glyph-name="Nacute" unicode="&#x143;" horiz-adv-x="757" 
d="M650 0h-56l-417 562v-562h-70v700h55l418 -563v563h70v-700zM524 856l-165 -116l-34 43l154 129z" />
    <glyph glyph-name="nacute" unicode="&#x144;" horiz-adv-x="601" 
d="M91 488h68v-86q59 98 174 98q100 0 142 -59.5t42 -176.5v-264h-68v253q0 31 -2.5 55t-10.5 49.5t-21.5 42.5t-36.5 27.5t-55 10.5q-52 0 -95 -32t-69 -82v-324h-68v488zM432 711l-126 -153l-43 34l118 158z" />
    <glyph glyph-name="Ncommaaccent" unicode="&#x145;" horiz-adv-x="757" 
d="M650 0h-56l-417 562v-562h-70v700h55l418 -563v563h70v-700zM420 -59l-46 -166h-56l34 166h68z" />
    <glyph glyph-name="ncommaaccent" unicode="&#x146;" horiz-adv-x="601" 
d="M91 488h68v-86q59 98 174 98q100 0 142 -59.5t42 -176.5v-264h-68v253q0 31 -2.5 55t-10.5 49.5t-21.5 42.5t-36.5 27.5t-55 10.5q-52 0 -95 -32t-69 -82v-324h-68v488zM345 -59l-46 -166h-56l34 166h68z" />
    <glyph glyph-name="Ncaron" unicode="&#x147;" horiz-adv-x="757" 
d="M650 0h-56l-417 562v-562h-70v700h55l418 -563v563h70v-700zM422 753h-72l-105 122l42 35l100 -103l102 103l41 -35z" />
    <glyph glyph-name="ncaron" unicode="&#x148;" horiz-adv-x="601" 
d="M91 488h68v-86q59 98 174 98q100 0 142 -59.5t42 -176.5v-264h-68v253q0 31 -2.5 55t-10.5 49.5t-21.5 42.5t-36.5 27.5t-55 10.5q-52 0 -95 -32t-69 -82v-324h-68v488zM447 711l-99 -142h-63l-99 141l43 29l89 -114l88 114z" />
    <glyph glyph-name="napostrophe" unicode="&#x149;" horiz-adv-x="620" 
d="M110 488h68v-86q59 98 174 98q100 0 142 -59.5t42 -176.5v-264h-68v253q0 31 -2.5 55t-10.5 49.5t-21.5 42.5t-36.5 27.5t-55 10.5q-52 0 -95 -32t-69 -82v-324h-68v488zM126 727l-63 -239h-65l48 239h80z" />
    <glyph glyph-name="Eng" unicode="&#x14a;" horiz-adv-x="757" 
d="M654 -35q0 -90 -35.5 -137.5t-122.5 -47.5q-37 0 -88 17l18 63q29 -12 57 -12q61 0 79 28.5t18 99.5v37l-403 547v-560h-74v700h63l414 -561v561h74v-735z" />
    <glyph glyph-name="eng" unicode="&#x14b;" horiz-adv-x="601" 
d="M297 -198l21 56q27 -16 53 -16q42 0 60 24t18 107v280q0 31 -2.5 55t-10.5 49.5t-21.5 42.5t-36.5 27.5t-55 10.5q-52 0 -95 -32t-69 -82v-324h-68v488h68v-86q59 98 174 98q100 0 142 -59.5t42 -176.5v-297q0 -95 -33 -139q-35 -48 -102 -48q-46 0 -85 22z" />
    <glyph glyph-name="Omacron" unicode="&#x14c;" horiz-adv-x="844" 
d="M700 350q0 124 -79.5 209t-198.5 85t-198.5 -85t-79.5 -209t79.5 -209t198.5 -85t198.5 85t79.5 209zM779 350q0 -151 -103 -256.5t-254 -105.5t-254 105.5t-103 256.5t103 256.5t254 105.5t254 -105.5t103 -256.5zM579 775h-313v59h313v-59z" />
    <glyph glyph-name="omacron" unicode="&#x14d;" horiz-adv-x="584" 
d="M292 500q107 0 176.5 -74t69.5 -182t-69.5 -182t-176.5 -74t-176.5 74t-69.5 182t69.5 182t176.5 74zM468 244q0 80 -48.5 137t-127.5 57t-127.5 -57t-48.5 -137t48.5 -137t127.5 -57t127.5 57t48.5 137zM430 607h-276v58h276v-58z" />
    <glyph glyph-name="Obreve" unicode="&#x14e;" horiz-adv-x="844" 
d="M700 350q0 124 -79.5 209t-198.5 85t-198.5 -85t-79.5 -209t79.5 -209t198.5 -85t198.5 85t79.5 209zM779 350q0 -151 -103 -256.5t-254 -105.5t-254 105.5t-103 256.5t103 256.5t254 105.5t254 -105.5t103 -256.5zM422 810q34 0 57 20t23 54v5h55v-6q0 -54 -39 -91
t-96 -37q-60 0 -97.5 36.5t-37.5 91.5v6h57v-5q0 -34 22 -54t56 -20z" />
    <glyph glyph-name="obreve" unicode="&#x14f;" horiz-adv-x="584" 
d="M292 500q107 0 176.5 -74t69.5 -182t-69.5 -182t-176.5 -74t-176.5 74t-69.5 182t69.5 182t176.5 74zM468 244q0 80 -48.5 137t-127.5 57t-127.5 -57t-48.5 -137t48.5 -137t127.5 -57t127.5 57t48.5 137zM432 715v-13q0 -56 -38.5 -95t-94.5 -39q-60 0 -96.5 38.5
t-36.5 95.5v13h52v-13q0 -36 23 -59.5t58 -23.5q36 0 60.5 23.5t24.5 59.5v13h48z" />
    <glyph glyph-name="Ohungarumlaut" unicode="&#x150;" horiz-adv-x="844" 
d="M700 350q0 124 -79.5 209t-198.5 85t-198.5 -85t-79.5 -209t79.5 -209t198.5 -85t198.5 85t79.5 209zM779 350q0 -151 -103 -256.5t-254 -105.5t-254 105.5t-103 256.5t103 256.5t254 105.5t254 -105.5t103 -256.5zM654 850l-156 -110l-34 43l146 122zM472 856l-165 -116
l-34 43l154 129z" />
    <glyph glyph-name="ohungarumlaut" unicode="&#x151;" horiz-adv-x="584" 
d="M292 500q107 0 176.5 -74t69.5 -182t-69.5 -182t-176.5 -74t-176.5 74t-69.5 182t69.5 182t176.5 74zM468 244q0 80 -48.5 137t-127.5 57t-127.5 -57t-48.5 -137t48.5 -137t127.5 -57t127.5 57t48.5 137zM503 706l-124 -148l-43 34l116 153zM358 716l-126 -153l-43 34
l118 158z" />
    <glyph glyph-name="OE" unicode="&#x152;" horiz-adv-x="1066" 
d="M996 0h-407v39q-77 -51 -167 -51q-151 0 -254 105.5t-103 256.5t103 256.5t254 105.5q88 0 167 -51v39h407v-68h-333v-236h333v-68h-333v-260h333v-68zM422 56q95 0 167 56v476q-72 56 -167 56q-119 0 -198.5 -85t-79.5 -209t79.5 -209t198.5 -85z" />
    <glyph glyph-name="oe" unicode="&#x153;" horiz-adv-x="969" 
d="M920 227h-385q5 -75 51.5 -128t122.5 -53q110 0 155 84l48 -31q-28 -52 -83.5 -81.5t-114.5 -29.5q-76 0 -130 33t-83 90q-31 -57 -85.5 -90t-123.5 -33q-107 0 -176.5 74t-69.5 182t69.5 182t176.5 74q70 0 124.5 -33.5t85.5 -90.5q30 57 84 90.5t120 33.5
q93 0 155 -67.5t62 -160.5q0 -18 -3 -45zM468 244q0 80 -48.5 137t-127.5 57t-127.5 -57t-48.5 -137t48.5 -137t127.5 -57t127.5 57t48.5 137zM706 442q-69 0 -113.5 -43.5t-55.5 -113.5h319q-3 63 -46 110t-104 47z" />
    <glyph glyph-name="Racute" unicode="&#x154;" horiz-adv-x="604" 
d="M177 305v-305h-74v700h201q41 0 80.5 -11t74.5 -33.5t56 -62t21 -90.5q0 -78 -48 -130t-134 -66q89 -122 227 -307h-92l-220 305h-92zM177 632v-259h102q178 0 178 128q0 59 -43.5 95t-114.5 36h-122zM409 856l-165 -116l-34 43l154 129z" />
    <glyph glyph-name="racute" unicode="&#x155;" horiz-adv-x="348" 
d="M159 488v-92q52 104 142 104q22 0 41 -4l-9 -75q-19 9 -46 9q-39 0 -69 -26.5t-59 -77.5v-326h-68v488h68zM334 711l-126 -153l-43 34l118 158z" />
    <glyph glyph-name="Rcommaaccent" unicode="&#x156;" horiz-adv-x="604" 
d="M177 305v-305h-74v700h201q41 0 80.5 -11t74.5 -33.5t56 -62t21 -90.5q0 -78 -48 -130t-134 -66q89 -122 227 -307h-92l-220 305h-92zM177 632v-259h102q178 0 178 128q0 59 -43.5 95t-114.5 36h-122zM358 -59l-46 -166h-56l34 166h68z" />
    <glyph glyph-name="rcommaaccent" unicode="&#x157;" horiz-adv-x="348" 
d="M159 488v-92q52 104 142 104q22 0 41 -4l-9 -75q-19 9 -46 9q-39 0 -69 -26.5t-59 -77.5v-326h-68v488h68zM156 -59l-46 -166h-56l34 166h68z" />
    <glyph glyph-name="Rcaron" unicode="&#x158;" horiz-adv-x="604" 
d="M177 305v-305h-74v700h201q41 0 80.5 -11t74.5 -33.5t56 -62t21 -90.5q0 -78 -48 -130t-134 -66q89 -122 227 -307h-92l-220 305h-92zM177 632v-259h102q178 0 178 128q0 59 -43.5 95t-114.5 36h-122zM324 753h-72l-105 122l42 35l100 -103l102 103l41 -35z" />
    <glyph glyph-name="rcaron" unicode="&#x159;" horiz-adv-x="348" 
d="M159 488v-92q52 104 142 104q22 0 41 -4l-9 -75q-19 9 -46 9q-39 0 -69 -26.5t-59 -77.5v-326h-68v488h68zM350 711l-99 -142h-63l-99 141l43 29l89 -114l88 114z" />
    <glyph glyph-name="Sacute" unicode="&#x15a;" horiz-adv-x="609" 
d="M453 591q-23 23 -64.5 38t-82.5 15q-65 0 -103 -29t-38 -80q0 -14 5 -27t10.5 -22.5t19.5 -19.5t22.5 -15.5t29 -14t30 -12.5t34.5 -13t34 -12q41 -15 68 -29t56 -36.5t43.5 -55t14.5 -74.5q0 -56 -22.5 -99.5t-59 -68t-76 -36.5t-79.5 -12q-146 0 -246 99l56 50
q48 -49 90.5 -65t100.5 -16q65 0 111 35t46 101q0 24 -10 44.5t-23 34t-38.5 27.5t-43 21.5t-50.5 19.5q-31 11 -42.5 15.5t-38.5 16.5t-38.5 20.5t-30.5 23.5t-27 30t-15 35.5t-7 44.5q0 91 58.5 139t146.5 48q120 0 208 -67zM442 856l-165 -116l-34 43l154 129z" />
    <glyph glyph-name="sacute" unicode="&#x15b;" horiz-adv-x="438" 
d="M356 453l-37 -46q-45 35 -99 35q-33 0 -59.5 -17.5t-26.5 -49.5q0 -11 3.5 -20.5t7 -16.5t13 -14.5t15.5 -12t20 -11t20 -9.5t23 -10t23 -9q56 -23 87.5 -55t31.5 -91q0 -61 -53 -99.5t-119 -38.5q-91 0 -151 66l41 43q48 -51 112 -51q40 0 71 21t31 60q0 20 -7.5 35
t-26.5 27t-32 18.5t-41 17.5q-32 13 -49 22t-40 26t-33.5 40.5t-10.5 55.5q0 61 44 96t108 35q76 0 134 -47zM360 711l-126 -153l-43 34l118 158z" />
    <glyph glyph-name="Scircumflex" unicode="&#x15c;" horiz-adv-x="609" 
d="M453 591q-23 23 -64.5 38t-82.5 15q-65 0 -103 -29t-38 -80q0 -14 5 -27t10.5 -22.5t19.5 -19.5t22.5 -15.5t29 -14t30 -12.5t34.5 -13t34 -12q41 -15 68 -29t56 -36.5t43.5 -55t14.5 -74.5q0 -56 -22.5 -99.5t-59 -68t-76 -36.5t-79.5 -12q-146 0 -246 99l56 50
q48 -49 90.5 -65t100.5 -16q65 0 111 35t46 101q0 24 -10 44.5t-23 34t-38.5 27.5t-43 21.5t-50.5 19.5q-31 11 -42.5 15.5t-38.5 16.5t-38.5 20.5t-30.5 23.5t-27 30t-15 35.5t-7 44.5q0 91 58.5 139t146.5 48q120 0 208 -67zM272 899h71l104 -124l-40 -33l-100 105
l-102 -105l-41 35z" />
    <glyph glyph-name="scircumflex" unicode="&#x15d;" horiz-adv-x="438" 
d="M356 453l-37 -46q-45 35 -99 35q-33 0 -59.5 -17.5t-26.5 -49.5q0 -11 3.5 -20.5t7 -16.5t13 -14.5t15.5 -12t20 -11t20 -9.5t23 -10t23 -9q56 -23 87.5 -55t31.5 -91q0 -61 -53 -99.5t-119 -38.5q-91 0 -151 66l41 43q48 -51 112 -51q40 0 71 21t31 60q0 20 -7.5 35
t-26.5 27t-32 18.5t-41 17.5q-32 13 -49 22t-40 26t-33.5 40.5t-10.5 55.5q0 61 44 96t108 35q76 0 134 -47zM261 730l99 -142l-41 -28l-88 114l-89 -114l-43 29l99 141h63z" />
    <glyph glyph-name="Scedilla" unicode="&#x15e;" horiz-adv-x="609" 
d="M453 591q-23 23 -64.5 38t-82.5 15q-65 0 -103 -29t-38 -80q0 -14 5 -27t10.5 -22.5t19.5 -19.5t22.5 -15.5t29 -14t30 -12.5t34.5 -13t34 -12q41 -15 68 -29t56 -36.5t43.5 -55t14.5 -74.5q0 -54 -21 -96.5t-55.5 -67.5t-73 -37.5t-77.5 -14.5l-24 -55l3 -1q16 16 48 16
q39 0 61.5 -26t22.5 -63q0 -40 -31 -69.5t-75 -29.5q-67 0 -98 54l52 26q11 -32 49 -32q20 0 32.5 14t12.5 33q0 21 -12 36t-33 15q-29 0 -43 -26l-57 31l37 79q-114 12 -201 97l56 50q48 -49 90.5 -65t100.5 -16q65 0 111 35t46 101q0 24 -10 44.5t-23 34t-38.5 27.5
t-43 21.5t-50.5 19.5q-31 11 -42.5 15.5t-38.5 16.5t-38.5 20.5t-30.5 23.5t-27 30t-15 35.5t-7 44.5q0 91 58.5 139t146.5 48q120 0 208 -67z" />
    <glyph glyph-name="scedilla" unicode="&#x15f;" horiz-adv-x="438" 
d="M356 453l-37 -46q-45 35 -99 35q-33 0 -59.5 -17.5t-26.5 -49.5q0 -11 3.5 -20.5t7 -16.5t13 -14.5t15.5 -12t20 -11t20 -9.5t23 -10t23 -9q56 -23 87.5 -55t31.5 -91q0 -56 -44.5 -93t-105.5 -43l-25 -57l3 -1q16 16 48 16q39 0 61.5 -26t22.5 -63q0 -40 -31 -69.5
t-75 -29.5q-67 0 -98 54l52 26q11 -32 49 -32q20 0 32.5 14t12.5 33q0 21 -12 36t-34 15q-28 0 -42 -26l-57 31l38 80q-71 11 -118 63l41 43q48 -51 112 -51q40 0 71 21t31 60q0 20 -7.5 35t-26.5 27t-32 18.5t-41 17.5q-32 13 -49 22t-40 26t-33.5 40.5t-10.5 55.5
q0 61 44 96t108 35q76 0 134 -47z" />
    <glyph glyph-name="Scaron" unicode="&#x160;" horiz-adv-x="609" 
d="M453 591q-23 23 -64.5 38t-82.5 15q-65 0 -103 -29t-38 -80q0 -14 5 -27t10.5 -22.5t19.5 -19.5t22.5 -15.5t29 -14t30 -12.5t34.5 -13t34 -12q41 -15 68 -29t56 -36.5t43.5 -55t14.5 -74.5q0 -56 -22.5 -99.5t-59 -68t-76 -36.5t-79.5 -12q-146 0 -246 99l56 50
q48 -49 90.5 -65t100.5 -16q65 0 111 35t46 101q0 24 -10 44.5t-23 34t-38.5 27.5t-43 21.5t-50.5 19.5q-31 11 -42.5 15.5t-38.5 16.5t-38.5 20.5t-30.5 23.5t-27 30t-15 35.5t-7 44.5q0 91 58.5 139t146.5 48q120 0 208 -67zM336 753h-72l-105 122l42 35l100 -103l102 103
l41 -35z" />
    <glyph glyph-name="scaron" unicode="&#x161;" horiz-adv-x="438" 
d="M356 453l-37 -46q-45 35 -99 35q-33 0 -59.5 -17.5t-26.5 -49.5q0 -11 3.5 -20.5t7 -16.5t13 -14.5t15.5 -12t20 -11t20 -9.5t23 -10t23 -9q56 -23 87.5 -55t31.5 -91q0 -61 -53 -99.5t-119 -38.5q-91 0 -151 66l41 43q48 -51 112 -51q40 0 71 21t31 60q0 20 -7.5 35
t-26.5 27t-32 18.5t-41 17.5q-32 13 -49 22t-40 26t-33.5 40.5t-10.5 55.5q0 61 44 96t108 35q76 0 134 -47zM355 711l-99 -142h-63l-99 141l43 29l89 -114l88 114z" />
    <glyph glyph-name="uni0162" unicode="&#x162;" horiz-adv-x="486" 
d="M461 632h-181v-632h-11l-27 -67l3 -1q16 16 48 16q39 0 61.5 -26t22.5 -63q0 -40 -31 -69.5t-75 -29.5q-67 0 -98 54l52 26q11 -32 49 -32q20 0 32.5 14t12.5 33q0 21 -12 36t-34 15q-28 0 -42 -26l-57 31l42 89h-10v632h-181v68h436v-68z" />
    <glyph glyph-name="uni0163" unicode="&#x163;" horiz-adv-x="337" 
d="M311 426h-142v-269q0 -61 18.5 -82.5t56.5 -21.5q24 0 60 13l17 -54q-39 -21 -78 -21q-12 0 -30 2l-25 -60l3 -1q16 16 48 16q39 0 61.5 -26t22.5 -63q0 -40 -31 -69.5t-75 -29.5q-67 0 -98 54l52 26q11 -32 49 -32q20 0 32.5 14t12.5 33q0 21 -12 36t-34 15
q-28 0 -42 -26l-57 31l47 97q-66 36 -66 141v277h-69v62h69v122h68v-122h142v-62z" />
    <glyph glyph-name="Tcaron" unicode="&#x164;" horiz-adv-x="486" 
d="M461 632h-181v-632h-74v632h-181v68h436v-68zM279 753h-72l-105 122l42 35l100 -103l102 103l41 -35z" />
    <glyph glyph-name="tcaron" unicode="&#x165;" horiz-adv-x="337" 
d="M311 426h-142v-269q0 -61 18.5 -82.5t56.5 -21.5q24 0 60 13l17 -54q-39 -21 -78 -21q-70 0 -106 40.5t-36 117.5v277h-69v62h69v122h68v-122h142v-62zM294 549h-57l41 201h70z" />
    <glyph glyph-name="Tbar" unicode="&#x166;" horiz-adv-x="486" 
d="M461 632h-181v-240h113v-62h-113v-330h-74v330h-113v62h113v240h-181v68h436v-68z" />
    <glyph glyph-name="tbar" unicode="&#x167;" horiz-adv-x="337" 
d="M311 426h-142v-130h142v-56h-142v-83q0 -61 18.5 -82.5t56.5 -21.5q24 0 60 13l17 -54q-39 -21 -78 -21q-70 0 -106 40.5t-36 117.5v91h-69v56h69v130h-69v62h69v122h68v-122h142v-62z" />
    <glyph glyph-name="Utilde" unicode="&#x168;" horiz-adv-x="724" 
d="M628 700v-371q0 -169 -64.5 -255t-203.5 -86q-264 0 -264 341v371h74v-399q0 -121 50.5 -183t141.5 -62t141.5 62t50.5 183v399h74zM471 865l51 6q3 -12 3 -23q0 -38 -24 -64t-64 -26q-41 0 -85 34.5t-65 34.5q-35 0 -37 -32q0 -8 1 -12l-51 -6q-3 12 -3 23q0 38 24 64
t64 26q31 0 58 -17t49.5 -34.5t42.5 -17.5q35 0 37 32q0 8 -1 12z" />
    <glyph glyph-name="utilde" unicode="&#x169;" horiz-adv-x="601" 
d="M510 0h-68v86q-59 -98 -174 -98q-100 0 -142 59.5t-42 176.5v264h68v-253q0 -31 2.5 -55t10.5 -49.5t21.5 -42.5t36.5 -27.5t55 -10.5q52 0 95 32t69 82v324h68v-488zM420 680l51 6q3 -12 3 -22q0 -36 -24.5 -60.5t-65.5 -24.5q-33 0 -60.5 17t-49.5 34t-41 17
q-17 0 -27.5 -9t-11.5 -24q0 -8 1 -11l-51 -6q-3 12 -3 22q0 36 24.5 60.5t65.5 24.5q31 0 58.5 -17t50 -34t42.5 -17q17 0 27.5 9t11.5 24q0 8 -1 11z" />
    <glyph glyph-name="Umacron" unicode="&#x16a;" horiz-adv-x="724" 
d="M628 700v-371q0 -169 -64.5 -255t-203.5 -86q-264 0 -264 341v371h74v-399q0 -121 50.5 -183t141.5 -62t141.5 62t50.5 183v399h74zM519 775h-313v59h313v-59z" />
    <glyph glyph-name="umacron" unicode="&#x16b;" horiz-adv-x="601" 
d="M510 0h-68v86q-59 -98 -174 -98q-100 0 -142 59.5t-42 176.5v264h68v-253q0 -31 2.5 -55t10.5 -49.5t21.5 -42.5t36.5 -27.5t55 -10.5q52 0 95 32t69 82v324h68v-488zM435 607h-276v58h276v-58z" />
    <glyph glyph-name="Ubreve" unicode="&#x16c;" horiz-adv-x="724" 
d="M628 700v-371q0 -169 -64.5 -255t-203.5 -86q-264 0 -264 341v371h74v-399q0 -121 50.5 -183t141.5 -62t141.5 62t50.5 183v399h74zM362 810q34 0 57 20t23 54v5h55v-6q0 -54 -39 -91t-96 -37q-60 0 -97.5 36.5t-37.5 91.5v6h57v-5q0 -34 22 -54t56 -20z" />
    <glyph glyph-name="ubreve" unicode="&#x16d;" horiz-adv-x="601" 
d="M510 0h-68v86q-59 -98 -174 -98q-100 0 -142 59.5t-42 176.5v264h68v-253q0 -31 2.5 -55t10.5 -49.5t21.5 -42.5t36.5 -27.5t55 -10.5q52 0 95 32t69 82v324h68v-488zM430 715v-13q0 -56 -38.5 -95t-94.5 -39q-60 0 -96.5 38.5t-36.5 95.5v13h52v-13q0 -36 23 -59.5
t58 -23.5q36 0 60.5 23.5t24.5 59.5v13h48z" />
    <glyph glyph-name="Uring" unicode="&#x16e;" horiz-adv-x="724" 
d="M628 700v-371q0 -169 -64.5 -255t-203.5 -86q-264 0 -264 341v371h74v-399q0 -121 50.5 -183t141.5 -62t141.5 62t50.5 183v399h74zM268 816q0 39 27.5 66.5t66.5 27.5t66.5 -27.5t27.5 -66.5t-27.5 -66.5t-66.5 -27.5t-66.5 27.5t-27.5 66.5zM312 816q0 -20 15 -35
t35 -15t35 15t15 35t-15 35t-35 15t-35 -15t-15 -35z" />
    <glyph glyph-name="uring" unicode="&#x16f;" horiz-adv-x="601" 
d="M510 0h-68v86q-59 -98 -174 -98q-100 0 -142 59.5t-42 176.5v264h68v-253q0 -31 2.5 -55t10.5 -49.5t21.5 -42.5t36.5 -27.5t55 -10.5q52 0 95 32t69 82v324h68v-488zM203 647q0 39 27.5 66.5t66.5 27.5t66.5 -27.5t27.5 -66.5t-27.5 -66.5t-66.5 -27.5t-66.5 27.5
t-27.5 66.5zM247 647q0 -20 15 -35t35 -15t35 15t15 35t-15 35t-35 15t-35 -15t-15 -35z" />
    <glyph glyph-name="Uhungarumlaut" unicode="&#x170;" horiz-adv-x="724" 
d="M628 700v-371q0 -169 -64.5 -255t-203.5 -86q-264 0 -264 341v371h74v-399q0 -121 50.5 -183t141.5 -62t141.5 62t50.5 183v399h74zM598 850l-156 -110l-34 43l146 122zM416 856l-165 -116l-34 43l154 129z" />
    <glyph glyph-name="uhungarumlaut" unicode="&#x171;" horiz-adv-x="601" 
d="M510 0h-68v86q-59 -98 -174 -98q-100 0 -142 59.5t-42 176.5v264h68v-253q0 -31 2.5 -55t10.5 -49.5t21.5 -42.5t36.5 -27.5t55 -10.5q52 0 95 32t69 82v324h68v-488zM491 706l-124 -148l-43 34l116 153zM346 716l-126 -153l-43 34l118 158z" />
    <glyph glyph-name="Uogonek" unicode="&#x172;" horiz-adv-x="724" 
d="M628 700v-371q0 -253 -146 -319q-50 -22 -77 -55.5t-27 -67.5q0 -55 51 -55q24 0 48 19l30 -40q-34 -31 -89 -31q-46 0 -76 27t-30 68q0 72 63 113h-15q-264 0 -264 341v371h74v-399q0 -121 50.5 -183t141.5 -62t141.5 62t50.5 183v399h74z" />
    <glyph glyph-name="uogonek" unicode="&#x173;" horiz-adv-x="601" 
d="M510 488v-488q-54 -20 -84 -49t-30 -64q0 -55 51 -55q24 0 48 19l30 -40q-34 -31 -89 -31q-46 0 -76 27t-30 68q0 42 30 77.5t82 55.5v78q-59 -98 -174 -98q-100 0 -142 59.5t-42 176.5v264h68v-253q0 -31 2.5 -55t10.5 -49.5t21.5 -42.5t36.5 -27.5t55 -10.5q52 0 95 32
t69 82v324h68z" />
    <glyph glyph-name="Wcircumflex" unicode="&#x174;" horiz-adv-x="860" 
d="M468 700l150 -572h2l162 572h72l-201 -700h-73l-148 576h-2l-159 -576h-73l-192 700h77l154 -572h2l159 572h70zM398 899h71l104 -124l-40 -33l-100 105l-102 -105l-41 35z" />
    <glyph glyph-name="wcircumflex" unicode="&#x175;" horiz-adv-x="715" 
d="M317 488h89l109 -422l112 422h67l-136 -488h-86l-114 415l-118 -415h-91l-124 488h70l102 -423zM394 730l99 -142l-41 -28l-88 114l-89 -114l-43 29l99 141h63z" />
    <glyph glyph-name="Ycircumflex" unicode="&#x176;" horiz-adv-x="524" 
d="M519 700l-226 -401v-299h-74v313l-214 387h91l166 -313h3l169 313h85zM230 899h71l104 -124l-40 -33l-100 105l-102 -105l-41 35z" />
    <glyph glyph-name="ycircumflex" unicode="&#x177;" horiz-adv-x="456" 
d="M12 488h74l138 -413l147 413h73l-265 -711l-58 23l65 176zM262 730l99 -142l-41 -28l-88 114l-89 -114l-43 29l99 141h63z" />
    <glyph glyph-name="Ydieresis" unicode="&#x178;" horiz-adv-x="524" 
d="M430 765h-80v107h80v-107zM196 765h-80v107h80v-107zM519 700l-226 -401v-299h-74v313l-214 387h91l166 -313h3l169 313h85z" />
    <glyph glyph-name="Zacute" unicode="&#x179;" horiz-adv-x="535" 
d="M487 657l-346 -589h374v-68h-475v40l347 592h-340v68h440v-43zM391 856l-165 -116l-34 43l154 129z" />
    <glyph glyph-name="zacute" unicode="&#x17a;" horiz-adv-x="441" 
d="M385 456l-229 -394h246v-62h-339v33l229 393h-240v62h333v-32zM350 711l-126 -153l-43 34l118 158z" />
    <glyph glyph-name="Zdotaccent" unicode="&#x17b;" horiz-adv-x="535" 
d="M487 657l-346 -589h374v-68h-475v40l347 592h-340v68h440v-43zM311 765h-80v107h80v-107z" />
    <glyph glyph-name="zdotaccent" unicode="&#x17c;" horiz-adv-x="441" 
d="M385 456l-229 -394h246v-62h-339v33l229 393h-240v62h333v-32zM260 597h-70v94h70v-94z" />
    <glyph glyph-name="Zcaron" unicode="&#x17d;" horiz-adv-x="535" 
d="M487 657l-346 -589h374v-68h-475v40l347 592h-340v68h440v-43zM304 753h-72l-105 122l42 35l100 -103l102 103l41 -35z" />
    <glyph glyph-name="zcaron" unicode="&#x17e;" horiz-adv-x="441" 
d="M385 456l-229 -394h246v-62h-339v33l229 393h-240v62h333v-32zM357 711l-99 -142h-63l-99 141l43 29l89 -114l88 114z" />
    <glyph glyph-name="longs" unicode="&#x17f;" horiz-adv-x="304" 
d="M326 744l-17 -56q-29 12 -61 12q-40 0 -62 -17q-31 -24 -31 -115v-568h-68v574q0 85 31 131q39 57 120 57q36 0 88 -18z" />
    <glyph glyph-name="florin" unicode="&#x192;" 
d="M11 -144q28 -6 49 -6q38 0 52 24.5t21 86.5l42 363h-84v68h91l14 122q9 78 49.5 119.5t105.5 41.5q58 0 118 -30l-32 -60q-31 22 -80 22q-47 0 -67 -26t-26 -84l-12 -105h126v-68h-133l-43 -380q-9 -78 -45 -120t-88 -42q-34 0 -74 11z" />
    <glyph glyph-name="Aringacute" unicode="&#x1fa;" horiz-adv-x="611" 
d="M437 993l-177 -94l-25 42l169 108zM15 0l270 700h67l244 -700h-83l-53 159h-308l-60 -159h-77zM315 596l-138 -369h261l-122 369h-1zM226 808q0 39 27.5 66.5t66.5 27.5t66.5 -27.5t27.5 -66.5t-27.5 -66.5t-66.5 -27.5t-66.5 27.5t-27.5 66.5zM270 808q0 -20 15 -35
t35 -15t35 15t15 35t-15 35t-35 15t-35 -15t-15 -35z" />
    <glyph glyph-name="aringacute" unicode="&#x1fb;" horiz-adv-x="534" 
d="M393 830l-170 -101l-29 43l165 112zM389 0l-5 57q-64 -69 -160 -69q-71 0 -120 39.5t-49 105.5q0 83 64 125t152 42q51 0 111 -15v27q0 126 -125 126q-83 0 -159 -42l-23 61q92 43 185 43q104 0 147 -51t43 -151v-298h-61zM382 230q-59 14 -114 14q-58 0 -101.5 -25.5
t-43.5 -77.5q0 -43 29.5 -70t73.5 -27q80 0 156 73v113zM169 624q0 39 27.5 66.5t66.5 27.5t66.5 -27.5t27.5 -66.5t-27.5 -66.5t-66.5 -27.5t-66.5 27.5t-27.5 66.5zM213 624q0 -20 15 -35t35 -15t35 15t15 35t-15 35t-35 15t-35 -15t-15 -35z" />
    <glyph glyph-name="AEacute" unicode="&#x1fc;" horiz-adv-x="974" 
d="M903 0h-405v158h-306l-114 -158h-89l510 700h404v-68h-334v-237h334v-68h-334v-259h334v-68zM242 228h256v359zM833 856l-165 -116l-34 43l154 129z" />
    <glyph glyph-name="aeacute" unicode="&#x1fd;" horiz-adv-x="880" 
d="M831 227h-385q5 -75 51.5 -128t122.5 -53q110 0 155 84l48 -31q-28 -52 -83.5 -81.5t-114.5 -29.5q-130 0 -196 95q-74 -95 -205 -95q-71 0 -120 39.5t-49 105.5q0 83 64 125t152 42q51 0 111 -15v27q0 126 -125 126q-83 0 -159 -42l-23 61q92 43 185 43q135 0 173 -94
q68 94 184 94q93 0 155 -67.5t62 -160.5q0 -18 -3 -45zM226 44q93 0 175 93q-15 42 -18 92q-57 15 -115 15t-101.5 -25.5t-43.5 -77.5q0 -43 29.5 -70t73.5 -27zM617 442q-69 0 -113.5 -43.5t-55.5 -113.5h319q-3 63 -46 110t-104 47zM563 711l-126 -153l-43 34l118 158z
" />
    <glyph glyph-name="Oslashacute" unicode="&#x1fe;" horiz-adv-x="844" 
d="M779 350q0 -151 -103 -256.5t-254 -105.5q-99 0 -180 48l-33 -49l-55 33l36 53q-59 50 -92 122.5t-33 154.5q0 151 103 256.5t254 105.5q90 0 170 -43l27 40l55 -34l-28 -42q62 -50 97.5 -124t35.5 -159zM700 350q0 137 -95 224l-324 -480q61 -38 141 -38q119 0 198.5 85
t79.5 209zM144 350q0 -131 86 -217l323 478q-61 33 -131 33q-119 0 -198.5 -85t-79.5 -209zM559 856l-165 -116l-34 43l154 129z" />
    <glyph glyph-name="oslashacute" unicode="&#x1ff;" horiz-adv-x="584" 
d="M292 500q62 0 117 -29l25 37l46 -29l-26 -39q84 -74 84 -196q0 -108 -69.5 -182t-176.5 -74q-68 0 -124 32l-25 -37l-45 29l27 40q-79 74 -79 192q0 108 69.5 182t176.5 74zM468 244q0 84 -52 141l-212 -312q38 -23 88 -23q79 0 127.5 57t48.5 137zM116 244
q0 -80 47 -136l210 310q-37 20 -81 20q-79 0 -127.5 -57t-48.5 -137zM433 711l-126 -153l-43 34l118 158z" />
    <glyph glyph-name="Scommaaccent" unicode="&#x218;" horiz-adv-x="609" 
d="M453 591q-23 23 -64.5 38t-82.5 15q-65 0 -103 -29t-38 -80q0 -14 5 -27t10.5 -22.5t19.5 -19.5t22.5 -15.5t29 -14t30 -12.5t34.5 -13t34 -12q41 -15 68 -29t56 -36.5t43.5 -55t14.5 -74.5q0 -56 -22.5 -99.5t-59 -68t-76 -36.5t-79.5 -12q-146 0 -246 99l56 50
q48 -49 90.5 -65t100.5 -16q65 0 111 35t46 101q0 24 -10 44.5t-23 34t-38.5 27.5t-43 21.5t-50.5 19.5q-31 11 -42.5 15.5t-38.5 16.5t-38.5 20.5t-30.5 23.5t-27 30t-15 35.5t-7 44.5q0 91 58.5 139t146.5 48q120 0 208 -67zM322 -59l-46 -166h-56l34 166h68z" />
    <glyph glyph-name="scommaaccent" unicode="&#x219;" horiz-adv-x="438" 
d="M356 453l-37 -46q-45 35 -99 35q-33 0 -59.5 -17.5t-26.5 -49.5q0 -11 3.5 -20.5t7 -16.5t13 -14.5t15.5 -12t20 -11t20 -9.5t23 -10t23 -9q56 -23 87.5 -55t31.5 -91q0 -61 -53 -99.5t-119 -38.5q-91 0 -151 66l41 43q48 -51 112 -51q40 0 71 21t31 60q0 20 -7.5 35
t-26.5 27t-32 18.5t-41 17.5q-32 13 -49 22t-40 26t-33.5 40.5t-10.5 55.5q0 61 44 96t108 35q76 0 134 -47zM246 -59l-46 -166h-56l34 166h68z" />
    <glyph glyph-name="uni021A" unicode="&#x21a;" horiz-adv-x="486" 
d="M461 632h-181v-632h-74v632h-181v68h436v-68zM273 -59l-46 -166h-56l34 166h68z" />
    <glyph glyph-name="uni021B" unicode="&#x21b;" horiz-adv-x="337" 
d="M311 426h-142v-269q0 -61 18.5 -82.5t56.5 -21.5q24 0 60 13l17 -54q-39 -21 -78 -21q-70 0 -106 40.5t-36 117.5v277h-69v62h69v122h68v-122h142v-62zM218 -59l-46 -166h-56l34 166h68z" />
    <glyph glyph-name="dotlessj" unicode="&#x237;" horiz-adv-x="257" 
d="M-53 -198l21 56q27 -16 53 -16q42 0 60 24t18 107v515h68v-521q0 -95 -33 -139q-35 -48 -102 -48q-46 0 -85 22z" />
    <glyph glyph-name="apostrophe" unicode="&#x2bc;" horiz-adv-x="360" 
d="M240 700l-54 -197h-62l39 197h77z" />
    <glyph glyph-name="circumflex" unicode="&#x2c6;" horiz-adv-x="360" 
d="M212 730l99 -142l-41 -28l-88 114l-89 -114l-43 29l99 141h63z" />
    <glyph glyph-name="caron" unicode="&#x2c7;" horiz-adv-x="360" 
d="M310 711l-99 -142h-63l-99 141l43 29l89 -114l88 114z" />
    <glyph glyph-name="uni02C9" unicode="&#x2c9;" horiz-adv-x="360" 
d="M318 607h-276v58h276v-58z" />
    <glyph glyph-name="breve" unicode="&#x2d8;" horiz-adv-x="360" 
d="M313 715v-13q0 -56 -38.5 -95t-94.5 -39q-60 0 -96.5 38.5t-36.5 95.5v13h52v-13q0 -36 23 -59.5t58 -23.5q36 0 60.5 23.5t24.5 59.5v13h48z" />
    <glyph glyph-name="dotaccent" unicode="&#x2d9;" horiz-adv-x="360" 
d="M215 597h-70v94h70v-94z" />
    <glyph glyph-name="ring" unicode="&#x2da;" horiz-adv-x="360" 
d="M86 647q0 39 27.5 66.5t66.5 27.5t66.5 -27.5t27.5 -66.5t-27.5 -66.5t-66.5 -27.5t-66.5 27.5t-27.5 66.5zM130 647q0 -20 15 -35t35 -15t35 15t15 35t-15 35t-35 15t-35 -15t-15 -35z" />
    <glyph glyph-name="ogonek" unicode="&#x2db;" horiz-adv-x="360" 
d="M160 11l61 -6v-5q-104 -38 -104 -109q0 -59 51 -59q24 0 48 19l30 -40q-34 -31 -89 -31q-46 0 -76 28t-30 71q0 90 109 132z" />
    <glyph glyph-name="tilde" unicode="&#x2dc;" horiz-adv-x="360" 
d="M293 680l51 6q3 -12 3 -22q0 -36 -24.5 -60.5t-65.5 -24.5q-33 0 -60.5 17t-49.5 34t-41 17q-17 0 -27.5 -9t-11.5 -24q0 -8 1 -11l-51 -6q-3 12 -3 22q0 36 24.5 60.5t65.5 24.5q31 0 58.5 -17t50 -34t42.5 -17q17 0 27.5 9t11.5 24q0 8 -1 11z" />
    <glyph glyph-name="hungarumlaut" unicode="&#x2dd;" horiz-adv-x="360" 
d="M374 706l-124 -148l-43 34l116 153zM229 716l-126 -153l-43 34l118 158z" />
    <glyph glyph-name="uni0394" unicode="&#x394;" 
d="M530 0h-510l220 566h74zM430 63l-156 429h-2l-158 -429h316z" />
    <glyph glyph-name="uni03A9" unicode="&#x3a9;" horiz-adv-x="794" 
d="M22 70h189q-79 54 -119 133.5t-40 161.5q0 63 21 123t61.5 111t108.5 82t154 31t154 -31t108.5 -82t61.5 -111t21 -123q0 -82 -40 -161.5t-119 -133.5h189v-70h-308v79q94 31 144.5 110.5t50.5 172.5q0 51 -14 98t-43 88.5t-82 66.5t-123 25t-123 -25t-82 -66.5
t-43 -88.5t-14 -98q0 -93 50.5 -172.5t144.5 -110.5v-79h-308v70z" />
    <glyph glyph-name="uni03BC" unicode="&#x3bc;" 
d="M488 0h-68v86q-59 -98 -174 -98q-72 0 -116 36v-274h-68v738h68v-253q0 -31 2.5 -55t10.5 -49.5t21.5 -42.5t36.5 -27.5t55 -10.5q52 0 95 32t69 82v324h68v-488z" />
    <glyph glyph-name="pi" unicode="&#x3c0;" 
d="M531 424h-96v-253q0 -25 1 -36q2 -41 12 -61.5t33 -24.5l-30 -63q-72 19 -81 136q-2 26 -2 40v262h-203v-372q0 -22 -4 -52h-68q6 21 6 63v361h-62v62h494v-62z" />
    <glyph glyph-name="Wgrave" unicode="&#x1e80;" horiz-adv-x="860" 
d="M468 700l150 -572h2l162 572h72l-201 -700h-73l-148 576h-2l-159 -576h-73l-192 700h77l154 -572h2l159 572h70zM465 740l-165 116l45 56l154 -129z" />
    <glyph glyph-name="wgrave" unicode="&#x1e81;" horiz-adv-x="715" 
d="M317 488h89l109 -422l112 422h67l-136 -488h-86l-114 415l-118 -415h-91l-124 488h70l102 -423zM363 558l-126 153l51 39l118 -158z" />
    <glyph glyph-name="Wacute" unicode="&#x1e82;" horiz-adv-x="860" 
d="M468 700l150 -572h2l162 572h72l-201 -700h-73l-148 576h-2l-159 -576h-73l-192 700h77l154 -572h2l159 572h70zM570 856l-165 -116l-34 43l154 129z" />
    <glyph glyph-name="wacute" unicode="&#x1e83;" horiz-adv-x="715" 
d="M317 488h89l109 -422l112 422h67l-136 -488h-86l-114 415l-118 -415h-91l-124 488h70l102 -423zM483 711l-126 -153l-43 34l118 158z" />
    <glyph glyph-name="Wdieresis" unicode="&#x1e84;" horiz-adv-x="860" 
d="M468 700l150 -572h2l162 572h72l-201 -700h-73l-148 576h-2l-159 -576h-73l-192 700h77l154 -572h2l159 572h70zM339 765h-80v107h80v-107zM607 765h-80v107h80v-107z" />
    <glyph glyph-name="wdieresis" unicode="&#x1e85;" horiz-adv-x="715" 
d="M317 488h89l109 -422l112 422h67l-136 -488h-86l-114 415l-118 -415h-91l-124 488h70l102 -423zM304 597h-70v94h70v-94zM490 597h-70v94h70v-94z" />
    <glyph glyph-name="Ygrave" unicode="&#x1ef2;" horiz-adv-x="524" 
d="M519 700l-226 -401v-299h-74v313l-214 387h91l166 -313h3l169 313h85zM325 740l-165 116l45 56l154 -129z" />
    <glyph glyph-name="ygrave" unicode="&#x1ef3;" horiz-adv-x="456" 
d="M12 488h74l138 -413l147 413h73l-265 -711l-58 23l65 176zM254 558l-126 153l51 39l118 -158z" />
    <glyph glyph-name="thinspace" unicode="&#x2009;" horiz-adv-x="125" 
 />
    <glyph glyph-name="endash" unicode="&#x2013;" horiz-adv-x="600" 
d="M550 271h-500v65h500v-65z" />
    <glyph glyph-name="emdash" unicode="&#x2014;" horiz-adv-x="900" 
d="M850 271h-800v65h800v-65z" />
    <glyph glyph-name="quoteleft" unicode="&#x2018;" horiz-adv-x="257" 
d="M66 463l62 237h63l-49 -237h-76z" />
    <glyph glyph-name="quoteright" unicode="&#x2019;" horiz-adv-x="257" 
d="M191 700l-62 -237h-63l49 237h76z" />
    <glyph glyph-name="quotesinglbase" unicode="&#x201a;" horiz-adv-x="257" 
d="M191 99l-62 -237h-63l49 237h76z" />
    <glyph glyph-name="quotedblleft" unicode="&#x201c;" horiz-adv-x="490" 
d="M275 463l62 237h63l-49 -237h-76zM90 463l62 237h63l-49 -237h-76z" />
    <glyph glyph-name="quotedblright" unicode="&#x201d;" horiz-adv-x="490" 
d="M215 700l-62 -237h-63l49 237h76zM400 700l-62 -237h-62l48 237h76z" />
    <glyph glyph-name="quotedblbase" unicode="&#x201e;" horiz-adv-x="490" 
d="M215 99l-62 -237h-63l49 237h76zM400 99l-62 -237h-62l48 237h76z" />
    <glyph glyph-name="dagger" unicode="&#x2020;" horiz-adv-x="405" 
d="M180 138v161l3 184l-73 -3h-34v44h34l73 -3l-3 131v48h46v-48l-3 -131l73 3h34v-44h-34l-73 3l3 -184v-161h-46z" />
    <glyph glyph-name="daggerdbl" unicode="&#x2021;" horiz-adv-x="405" 
d="M226 700l-3 -107l108 3v-44l-108 3l1 -56v-62l-1 -25l108 3v-44l-108 3l3 -236h-46l3 236l-108 -3v44l108 -3l-1 25v62l1 56l-108 -3v44l108 -3l-3 107h46z" />
    <glyph glyph-name="bullet" unicode="&#x2022;" horiz-adv-x="299" 
d="M35 289q0 48 33.5 81.5t81.5 33.5t81 -33.5t33 -81.5t-33 -81.5t-81 -33.5t-81.5 33.5t-33.5 81.5z" />
    <glyph glyph-name="ellipsis" unicode="&#x2026;" horiz-adv-x="750" 
d="M166 0h-83v101h83v-101zM666 0h-83v101h83v-101zM416 0h-83v101h83v-101z" />
    <glyph glyph-name="perthousand" unicode="&#x2030;" horiz-adv-x="1234" 
d="M63 551q0 65 44 110t107 45t107.5 -45.5t44.5 -109.5t-44.5 -109t-107.5 -45t-107 45t-44 109zM120 551q0 -40 27.5 -68.5t66.5 -28.5q40 0 67.5 28t27.5 69t-27.5 69.5t-67.5 28.5q-39 0 -66.5 -28.5t-27.5 -69.5zM483 148q0 65 44 110t107 45t107.5 -45.5t44.5 -109.5
t-44.5 -109t-107.5 -45t-107 45t-44 109zM540 148q0 -40 27.5 -68.5t66.5 -28.5q40 0 67.5 28t27.5 69t-27.5 69.5t-67.5 28.5q-39 0 -66.5 -28.5t-27.5 -69.5zM868 148q0 65 44 110t107 45t107.5 -45.5t44.5 -109.5t-44.5 -109t-107.5 -45t-107 45t-44 109zM925 148
q0 -40 27.5 -68.5t66.5 -28.5q40 0 67.5 28t27.5 69t-27.5 69.5t-67.5 28.5q-39 0 -66.5 -28.5t-27.5 -69.5zM650 709l46 -34l-497 -684l-46 34z" />
    <glyph glyph-name="guilsinglleft" unicode="&#x2039;" horiz-adv-x="324" 
d="M222 85l-147 137v101l147 137l27 -65l-128 -122l128 -122z" />
    <glyph glyph-name="guilsinglright" unicode="&#x203a;" horiz-adv-x="323" 
d="M101 460l147 -137v-101l-147 -137l-26 65l127 122l-127 122z" />
    <glyph glyph-name="fraction" unicode="&#x2044;" horiz-adv-x="123" 
d="M287 709l46 -34l-497 -684l-46 34z" />
    <glyph glyph-name="Euro" unicode="&#x20ac;" horiz-adv-x="650" 
d="M465 224h-291q26 -79 90.5 -123t156.5 -44q93 0 163 42l37 -56q-86 -55 -197 -55q-122 0 -208.5 62.5t-116.5 173.5h-91v64h80q-2 28 -2 45q0 14 2 42h-80v64h90q29 111 113.5 174t209.5 63q108 0 179 -44l-32 -58q-57 33 -147 33q-94 0 -158.5 -44t-89.5 -124h292v-64
h-305q-2 -14 -2 -42q0 -17 2 -45h305v-64z" />
    <glyph glyph-name="afii61352" unicode="&#x2116;" horiz-adv-x="1122" 
d="M654 0h-64l-413 560v-560h-74v700h63l414 -561v561h74v-700zM918 704q72 0 121.5 -51.5t49.5 -126.5t-49.5 -126.5t-121.5 -51.5t-121.5 51.5t-49.5 126.5t49.5 126.5t121.5 51.5zM1031 526q0 53 -32 88.5t-81 35.5t-81 -35.5t-32 -88.5t32 -88.5t81 -35.5t81 35.5
t32 88.5z" />
    <glyph glyph-name="trademark" unicode="&#x2122;" horiz-adv-x="977" 
d="M343 644h-98v-340h-59v340h-99v56h256v-56zM829 640l-136 -336h-74l-134 333v-333h-60v396h99l132 -340l133 340h100v-396h-60v336z" />
    <glyph glyph-name="Omega" unicode="&#x2126;" horiz-adv-x="794" 
d="M22 70h189q-79 54 -119 133.5t-40 161.5q0 63 21 123t61.5 111t108.5 82t154 31t154 -31t108.5 -82t61.5 -111t21 -123q0 -82 -40 -161.5t-119 -133.5h189v-70h-308v79q94 31 144.5 110.5t50.5 172.5q0 51 -14 98t-43 88.5t-82 66.5t-123 25t-123 -25t-82 -66.5
t-43 -88.5t-14 -98q0 -93 50.5 -172.5t144.5 -110.5v-79h-308v70z" />
    <glyph glyph-name="onethird" unicode="&#x2153;" horiz-adv-x="738" 
d="M570 709l46 -34l-497 -684l-46 34zM215 338h-54v293q-30 -13 -51 -21v50q58 30 75 40h30v-362zM490 157l1 53q32 0 48 4q46 15 46 55q0 21 -15.5 34.5t-41.5 13.5q-42 0 -53 -41l-50 20q12 32 40 51t63 19q48 0 80.5 -27t32.5 -70q0 -23 -12.5 -43.5t-30.5 -31.5
q27 -10 43.5 -34t16.5 -55q0 -49 -34.5 -79t-87.5 -30q-36 0 -67.5 17.5t-47.5 49.5l48 24q21 -42 69 -42q27 0 45 15t18 42t-21 43t-54 16q-22 0 -36 -4z" />
    <glyph glyph-name="twothirds" unicode="&#x2154;" horiz-adv-x="820" 
d="M651 709l46 -34l-497 -684l-46 34zM317 338h-228v46q75 82 125 156q28 41 28 68q0 21 -15.5 33.5t-38.5 12.5t-37.5 -15.5t-14.5 -41.5l-56 11q3 40 36.5 68t75.5 28t74.5 -27t32.5 -71q0 -40 -39 -100q-35 -52 -94 -118h151v-50zM572 157l1 53q32 0 48 4q46 15 46 55
q0 21 -15.5 34.5t-41.5 13.5q-42 0 -53 -41l-50 20q12 32 40 51t63 19q48 0 80.5 -27t32.5 -70q0 -23 -12.5 -43.5t-30.5 -31.5q27 -10 43.5 -34t16.5 -55q0 -49 -34.5 -79t-87.5 -30q-36 0 -67.5 17.5t-47.5 49.5l48 24q21 -42 69 -42q27 0 45 15t18 42t-21 43t-54 16
q-22 0 -36 -4z" />
    <glyph glyph-name="oneeighth" unicode="&#x215b;" horiz-adv-x="754" 
d="M570 709l46 -34l-497 -684l-46 34zM215 338h-54v293q-30 -13 -51 -21v50q58 30 75 40h30v-362zM675 100q0 -42 -33 -73t-88 -31q-56 0 -89 31t-33 73q0 57 54 90q-45 27 -45 77q0 41 32 70t81 29q48 0 80 -29t32 -70q0 -50 -45 -77q54 -33 54 -90zM497 264
q0 -22 16.5 -37.5t40.5 -15.5q23 0 39.5 15.5t16.5 37.5q0 23 -16 38t-40 15q-25 0 -41 -15t-16 -38zM489 104q0 -25 18.5 -42t46.5 -17t46 17t18 42q0 26 -18 43.5t-46 17.5t-46.5 -17.5t-18.5 -43.5z" />
    <glyph glyph-name="threeeighths" unicode="&#x215c;" horiz-adv-x="815" 
d="M631 709l46 -34l-497 -684l-46 34zM149 495l1 53q32 0 48 4q46 15 46 55q0 21 -15.5 34.5t-41.5 13.5q-42 0 -53 -41l-50 20q12 32 40 51t63 19q48 0 80.5 -27t32.5 -70q0 -23 -12.5 -43.5t-30.5 -31.5q27 -10 43.5 -34t16.5 -55q0 -49 -34.5 -79t-87.5 -30
q-36 0 -67.5 17.5t-47.5 49.5l48 24q21 -42 69 -42q27 0 45 15t18 42t-21 43t-54 16q-22 0 -36 -4zM736 100q0 -42 -33 -73t-88 -31q-56 0 -89 31t-33 73q0 57 54 90q-45 27 -45 77q0 41 32 70t81 29q48 0 80 -29t32 -70q0 -50 -45 -77q54 -33 54 -90zM558 264
q0 -22 16.5 -37.5t40.5 -15.5q23 0 39.5 15.5t16.5 37.5q0 23 -16 38t-40 15q-25 0 -41 -15t-16 -38zM550 104q0 -25 18.5 -42t46.5 -17t46 17t18 42q0 26 -18 43.5t-46 17.5t-46.5 -17.5t-18.5 -43.5z" />
    <glyph glyph-name="fiveeighths" unicode="&#x215d;" horiz-adv-x="801" 
d="M616 709l46 -34l-497 -684l-46 34zM299 650h-129q-1 -18 -3.5 -50.5t-3.5 -42.5q19 8 46 8q43 0 75 -32t32 -78q0 -52 -35 -86.5t-87 -34.5q-36 0 -67.5 17.5t-47.5 47.5l49 25q17 -42 65 -42q30 0 48 20t18 50q0 29 -18.5 47.5t-46.5 18.5q-34 0 -56 -25l-35 28
q10 96 13 179h183v-50zM722 100q0 -42 -33 -73t-88 -31q-56 0 -89 31t-33 73q0 57 54 90q-45 27 -45 77q0 41 32 70t81 29q48 0 80 -29t32 -70q0 -50 -45 -77q54 -33 54 -90zM544 264q0 -22 16.5 -37.5t40.5 -15.5q23 0 39.5 15.5t16.5 37.5q0 23 -16 38t-40 15
q-25 0 -41 -15t-16 -38zM536 104q0 -25 18.5 -42t46.5 -17t46 17t18 42q0 26 -18 43.5t-46 17.5t-46.5 -17.5t-18.5 -43.5z" />
    <glyph glyph-name="seveneighths" unicode="&#x215e;" horiz-adv-x="752" 
d="M568 709l46 -34l-497 -684l-46 34zM323 662q-103 -223 -148 -334l-50 24q49 112 140 298h-170v50h228v-38zM673 100q0 -42 -33 -73t-88 -31q-56 0 -89 31t-33 73q0 57 54 90q-45 27 -45 77q0 41 32 70t81 29q48 0 80 -29t32 -70q0 -50 -45 -77q54 -33 54 -90zM495 264
q0 -22 16.5 -37.5t40.5 -15.5q23 0 39.5 15.5t16.5 37.5q0 23 -16 38t-40 15q-25 0 -41 -15t-16 -38zM487 104q0 -25 18.5 -42t46.5 -17t46 17t18 42q0 26 -18 43.5t-46 17.5t-46.5 -17.5t-18.5 -43.5z" />
    <glyph glyph-name="uni2192" unicode="&#x2192;" horiz-adv-x="932" 
d="M526 12l229 224h-680v55h681l-230 225l38 39l293 -291l-293 -292z" />
    <glyph glyph-name="uni2194" unicode="&#x2194;" horiz-adv-x="1069" 
d="M663 12l229 224h-715l229 -224l-38 -40l-293 292l293 291l38 -39l-230 -225h717l-230 225l38 39l293 -291l-293 -292z" />
    <glyph glyph-name="uni21D2" unicode="&#x21d2;" horiz-adv-x="895" 
d="M489 12l158 155h-572v55h628l43 42l-43 42h-628v55h572l-158 155l38 39l293 -291l-293 -292z" />
    <glyph glyph-name="uni21D4" unicode="&#x21d4;" horiz-adv-x="1221" 
d="M815 12l158 155h-725l158 -155l-38 -40l-293 292l293 291l38 -39l-158 -155h725l-158 155l38 39l293 -291l-293 -292zM149 264l43 -42h837l43 42l-43 42h-837z" />
    <glyph glyph-name="uni21FD" unicode="&#x21fd;" horiz-adv-x="933" 
d="M858 291v-55h-531v-224l-252 252l252 251v-224h531zM274 387l-126 -123l126 -124v247z" />
    <glyph glyph-name="uni21FE" unicode="&#x21fe;" horiz-adv-x="933" 
d="M75 236v55h531v224l252 -251l-252 -252v224h-531zM785 264l-126 123v-247z" />
    <glyph glyph-name="uni21FF" unicode="&#x21ff;" horiz-adv-x="1223" 
d="M1148 264l-252 -252v224h-569v-224l-252 252l252 251v-224h569v224zM1075 264l-126 123v-247zM148 264l126 -124v247z" />
    <glyph glyph-name="uni2200" unicode="&#x2200;" horiz-adv-x="611" 
d="M596 700l-269 -700h-69l-243 700h85l53 -159h304l60 159h79zM295 112l137 361h-257l119 -361h1z" />
    <glyph glyph-name="partialdiff" unicode="&#x2202;" 
d="M272 -12q-109 0 -177 76.5t-68 179.5t68.5 173.5t174.5 70.5q63 0 122 -21q-25 39 -81 86q-94 76 -278 153l26 63q244 -101 355.5 -225t111.5 -307q0 -105 -67.5 -177t-186.5 -72zM454 233q0 82 -28 163q-56 25 -118 25q-88 0 -148.5 -43t-60.5 -131q0 -79 51.5 -135
t128.5 -56q78 0 126.5 52t48.5 125z" />
    <glyph glyph-name="uni2203" unicode="&#x2203;" horiz-adv-x="580" 
d="M70 700h407v-700h-407v68h333v236h-333v68h333v260h-333v68z" />
    <glyph glyph-name="uni2204" unicode="&#x2204;" horiz-adv-x="580" 
d="M70 700h251l23 79l62 -16l-18 -63h89v-700h-292l-23 -81l-62 16l19 65h-49v68h69l68 236h-137v68h156l75 260h-231v68zM403 304h-130l-68 -236h198v236zM403 632h-35l-75 -260h110v260z" />
    <glyph glyph-name="Delta" unicode="&#x2206;" horiz-adv-x="633" 
d="M619 0h-605l271 700h66zM516 68l-199 538h-1l-199 -538h399z" />
    <glyph glyph-name="uni2208" unicode="&#x2208;" 
d="M478 0h-115q-161 0 -234 66t-73 178t73 178t234 66h115v-61h-139q-98 0 -151 -42.5t-63 -109.5h353v-61h-353q10 -68 63 -110.5t151 -42.5h139v-61z" />
    <glyph glyph-name="uni2209" unicode="&#x2209;" 
d="M366 620l56 -14l-34 -118h90v-61h-107l-44 -152h151v-61h-168l-42 -146q29 -7 71 -7h139v-61h-115q-65 0 -112 10l-41 -144l-56 14l42 147q-140 55 -140 217q0 105 65 170t207 73zM310 426q-84 -6 -129.5 -47.5t-55.5 -103.5h142zM125 214q12 -87 88 -127l37 127h-125z
" />
    <glyph glyph-name="product" unicode="&#x220f;" 
d="M537 496h-91v-496h-74v496h-194v-496h-74v496h-91v70h524v-70z" />
    <glyph glyph-name="summation" unicode="&#x2211;" 
d="M380 367l-229 -297h375v-70h-499v41l260 322l-249 293v44h462v-70h-343z" />
    <glyph glyph-name="minus" unicode="&#x2212;" 
d="M485 282h-419v60h419v-60z" />
    <glyph glyph-name="uni2215" unicode="&#x2215;" horiz-adv-x="346" 
d="M346 741l-292 -788l-54 21l292 788z" />
    <glyph glyph-name="uni2219" unicode="&#x2219;" 
d="M316 259h-83v101h83v-101z" />
    <glyph glyph-name="radical" unicode="&#x221a;" 
d="M298 -1h-68l-129 425h-81v63h131l113 -406h1l196 668h66z" />
    <glyph glyph-name="infinity" unicode="&#x221e;" horiz-adv-x="778" 
d="M206 402q44 0 85 -24.5t99 -84.5q58 61 98 85t84 24q68 0 115.5 -47t47.5 -112q0 -64 -47.5 -110.5t-115.5 -46.5q-44 0 -85 24.5t-99 84.5q-59 -60 -99 -84.5t-83 -24.5q-68 0 -115.5 47t-47.5 112q0 64 47.5 110.5t115.5 46.5zM580 143q40 0 66.5 30t26.5 71
q0 40 -27 70.5t-66 30.5q-62 0 -154 -101q90 -101 154 -101zM198 345q-40 0 -66.5 -30t-26.5 -71q0 -40 27 -70.5t66 -30.5q62 0 154 101q-90 101 -154 101z" />
    <glyph glyph-name="uni2229" unicode="&#x2229;" 
d="M500 169v-169h-66v200q0 238 -159 238t-159 -238v-200h-66v169q0 175 57 253t168 78t168 -78t57 -253z" />
    <glyph glyph-name="uni222A" unicode="&#x222a;" 
d="M50 319v169h66v-200q0 -238 159 -238t159 238v200h66v-169q0 -175 -57 -253t-168 -78t-168 78t-57 253z" />
    <glyph glyph-name="integral" unicode="&#x222b;" 
d="M216 -29l27 611q4 98 39 139q36 41 119 41q34 0 84 -18l-21 -61q-30 11 -69 11q-40 0 -60 -20q-4 -4 -7.5 -9.5t-5.5 -14t-3.5 -14t-2.5 -17.5t-1.5 -15.5t-1 -18t-0.5 -16.5l-27 -611q-4 -95 -38 -138q-34 -42 -107 -42q-27 0 -77 18l21 61q27 -11 53 -11q33 0 55 20
q9 9 14 26.5t6.5 31.5t2.5 47z" />
    <glyph glyph-name="uni2234" unicode="&#x2234;" 
d="M156 0h-83v101h83v-101zM478 0h-83v101h83v-101zM317 299h-83v101h83v-101z" />
    <glyph glyph-name="approxequal" unicode="&#x2248;" 
d="M440 447l46 -31q-17 -35 -50 -55.5t-74 -20.5q-38 0 -95 25t-82 25q-48 0 -74 -46l-46 31q17 35 50 55.5t74 20.5q38 0 95 -25t82 -25q48 0 74 46zM440 283l46 -31q-17 -35 -50 -55.5t-74 -20.5q-38 0 -95 25t-82 25q-48 0 -74 -46l-46 31q17 35 50 55.5t74 20.5
q38 0 95 -25t82 -25q48 0 74 46z" />
    <glyph glyph-name="notequal" unicode="&#x2260;" 
d="M485 364h-143l-70 -104h213v-60h-254l-104 -156l-50 36l80 120h-91v60h132l70 104h-202v60h242l103 153l50 -36l-79 -117h103v-60z" />
    <glyph glyph-name="lessequal" unicode="&#x2264;" 
d="M31 60h489v-60h-489v60zM31 339v67l489 195v-65l-412 -164l412 -164v-65z" />
    <glyph glyph-name="greaterequal" unicode="&#x2265;" 
d="M31 60h489v-60h-489v60zM520 406v-67l-489 -196v65l412 164l-412 164v65z" />
    <glyph glyph-name="uni2282" unicode="&#x2282;" 
d="M478 0h-115q-161 0 -234 66t-73 178t73 178t234 66h115v-61h-139q-109 0 -162.5 -52t-53.5 -131t53.5 -131t162.5 -52h139v-61z" />
    <glyph glyph-name="uni2283" unicode="&#x2283;" 
d="M187 0h-115v61h139q109 0 162.5 52t53.5 131t-53.5 131t-162.5 52h-139v61h115q161 0 234 -66t73 -178t-73 -178t-234 -66z" />
    <glyph glyph-name="uni2284" unicode="&#x2284;" 
d="M366 620l56 -14l-34 -118h90v-61h-107l-103 -359q29 -7 71 -7h139v-61h-115q-65 0 -112 10l-41 -144l-56 14l42 147q-140 55 -140 217q0 105 65 170t207 73zM123 244q0 -110 90 -157l98 339q-95 -7 -141.5 -58t-46.5 -124z" />
    <glyph glyph-name="uni2285" unicode="&#x2285;" 
d="M340 620l56 -14l-42 -145q140 -56 140 -217q0 -106 -65 -171t-207 -72l-38 -135l-56 14l34 120h-90v61h108l103 359q-37 7 -72 7h-139v61h115q60 0 112 -11zM427 244q0 109 -90 156l-97 -338q94 7 140.5 58t46.5 124z" />
    <glyph glyph-name="uni2286" unicode="&#x2286;" 
d="M478 122h-115q-161 0 -234 66t-73 178t73 178t234 66h115v-61h-139q-109 0 -162.5 -52t-53.5 -131t53.5 -131t162.5 -52h139v-61zM64 0v61h414v-61h-414z" />
    <glyph glyph-name="uni2287" unicode="&#x2287;" 
d="M187 122h-115v61h139q109 0 162.5 52t53.5 131t-53.5 131t-162.5 52h-139v61h115q161 0 234 -66t73 -178t-73 -178t-234 -66zM486 61v-61h-414v61h414z" />
    <glyph glyph-name="uni22C4" unicode="&#x22c4;" 
d="M275 544l182 -294l-182 -294l-182 294zM160 250l115 -187l116 187l-116 187z" />
    <glyph glyph-name="triangle" unicode="&#x25b3;" horiz-adv-x="398" 
d="M368 286l-308 -175v348z" />
    <glyph glyph-name="lozenge" unicode="&#x25ca;" 
d="M44 350l196 350h72l196 -350l-196 -350h-72zM447 350l-171 304l-171 -304l171 -304z" />
    <glyph glyph-name="circle" unicode="&#x25cb;" horiz-adv-x="366" 
d="M35 289q0 61 43.5 104.5t104.5 43.5t104.5 -43.5t43.5 -104.5t-43.5 -104.5t-104.5 -43.5t-104.5 43.5t-43.5 104.5z" />
    <glyph glyph-name="uni25FB" unicode="&#x25fb;" 
d="M98 391h354v-354h-354v354zM152 337v-246h246v246h-246z" />
    <glyph glyph-name="commainferior" unicode="&#xf6e1;" horiz-adv-x="167" 
d="M116 -106l-41 -153h-59l32 153h68z" />
    <glyph glyph-name="commasuperior" unicode="&#xf6e2;" horiz-adv-x="167" 
d="M116 439l-41 -153h-59l32 153h68z" />
    <glyph glyph-name="hypheninferior" unicode="&#xf6e5;" horiz-adv-x="275" 
d="M214 -33h-153v53h153v-53z" />
    <glyph glyph-name="hyphensuperior" unicode="&#xf6e6;" horiz-adv-x="275" 
d="M214 512h-153v53h153v-53z" />
    <glyph glyph-name="periodinferior" unicode="&#xf6e7;" horiz-adv-x="164" 
d="M116 -178h-68v73h68v-73z" />
    <glyph glyph-name="periodsuperior" unicode="&#xf6e8;" horiz-adv-x="164" 
d="M116 367h-68v73h68v-73z" />
    <glyph glyph-name="M.salt" horiz-adv-x="834" 
d="M442 166h-51l-214 437v-603h-74v700h108l206 -426h1l208 426h105v-700h-74v601z" />
    <glyph glyph-name="trademark.salt" horiz-adv-x="884" 
d="M343 644h-98v-340h-59v340h-99v56h256v-56zM427 700h70l108 -227l112 227h69v-396h-58v287l-106 -206h-31l-106 208v-289h-58v396z" />
    <glyph glyph-name="hyphen.case" horiz-adv-x="467" 
d="M357 297h-248v63h248v-63z" />
    <glyph glyph-name="germandbls.cap" horiz-adv-x="1218" 
d="M1062 591q-23 23 -64.5 38t-82.5 15q-65 0 -103 -29t-38 -80q0 -14 5 -27t10.5 -22.5t19.5 -19.5t22.5 -15.5t29 -14t30 -12.5t34.5 -13t34 -12q41 -15 68 -29t56 -36.5t43.5 -55t14.5 -74.5q0 -56 -22.5 -99.5t-59 -68t-76 -36.5t-79.5 -12q-146 0 -246 99l56 50
q48 -49 90.5 -65t100.5 -16q65 0 111 35t46 101q0 24 -10 44.5t-23 34t-38.5 27.5t-43 21.5t-50.5 19.5q-31 11 -42.5 15.5t-38.5 16.5t-38.5 20.5t-30.5 23.5t-27 30t-15 35.5t-7 44.5q0 91 58.5 139t146.5 48q120 0 208 -67zM453 591q-23 23 -64.5 38t-82.5 15
q-65 0 -103 -29t-38 -80q0 -14 5 -27t10.5 -22.5t19.5 -19.5t22.5 -15.5t29 -14t30 -12.5t34.5 -13t34 -12q41 -15 68 -29t56 -36.5t43.5 -55t14.5 -74.5q0 -56 -22.5 -99.5t-59 -68t-76 -36.5t-79.5 -12q-146 0 -246 99l56 50q48 -49 90.5 -65t100.5 -16q65 0 111 35
t46 101q0 24 -10 44.5t-23 34t-38.5 27.5t-43 21.5t-50.5 19.5q-31 11 -42.5 15.5t-38.5 16.5t-38.5 20.5t-30.5 23.5t-27 30t-15 35.5t-7 44.5q0 91 58.5 139t146.5 48q120 0 208 -67z" />
    <glyph glyph-name="idotaccent" horiz-adv-x="250" 
d="M159 0h-68v488h68v-488zM159 597h-68v94h68v-94z" />
    <glyph glyph-name="s_t" horiz-adv-x="775" 
d="M356 453l-37 -46q-45 35 -99 35q-33 0 -59.5 -17.5t-26.5 -49.5q0 -11 3.5 -20.5t7 -16.5t13 -14.5t15.5 -12t20 -11t20 -9.5t23 -10t23 -9q56 -23 87.5 -55t31.5 -91q0 -61 -53 -99.5t-119 -38.5q-91 0 -151 66l41 43q48 -51 112 -51q40 0 71 21t31 60q0 20 -7.5 35
t-26.5 27t-32 18.5t-41 17.5q-32 13 -49 22t-40 26t-33.5 40.5t-10.5 55.5q0 61 44 96t108 35q76 0 134 -47zM749 426h-142v-269q0 -61 18.5 -82.5t56.5 -21.5q24 0 60 13l17 -54q-39 -21 -78 -21q-70 0 -106 40.5t-36 117.5v277h-69v62h69v122h68v-122h142v-62z" />
    <glyph glyph-name="s_p" horiz-adv-x="1050" 
d="M356 453l-37 -46q-45 35 -99 35q-33 0 -59.5 -17.5t-26.5 -49.5q0 -11 3.5 -20.5t7 -16.5t13 -14.5t15.5 -12t20 -11t20 -9.5t23 -10t23 -9q56 -23 87.5 -55t31.5 -91q0 -61 -53 -99.5t-119 -38.5q-91 0 -151 66l41 43q48 -51 112 -51q40 0 71 21t31 60q0 20 -7.5 35
t-26.5 27t-32 18.5t-41 17.5q-32 13 -49 22t-40 26t-33.5 40.5t-10.5 55.5q0 61 44 96t108 35q76 0 134 -47zM529 488h68v-63q57 75 157 75q106 0 178 -74.5t72 -179.5q0 -106 -72.5 -182t-178.5 -76q-91 0 -156 60v-298h-68v738zM597 346v-219q27 -35 70 -56t85 -21
q78 0 130 56.5t52 135.5q0 81 -51.5 138.5t-130.5 57.5q-46 0 -90.5 -25t-64.5 -67z" />
    <glyph glyph-name="c_t" horiz-adv-x="815" 
d="M402 82l35 -52q-62 -42 -133 -42q-113 0 -185.5 73t-72.5 183q0 108 72.5 182t183.5 74q64 0 122 -33l-25 -57q-42 28 -102 28q-81 0 -131 -56.5t-50 -137.5q0 -84 50 -139t133 -55q24 0 54.5 9.5t48.5 22.5zM789 426h-142v-269q0 -61 18.5 -82.5t56.5 -21.5q24 0 60 13
l17 -54q-39 -21 -78 -21q-70 0 -106 40.5t-36 117.5v277h-69v62h69v122h68v-122h142v-62z" />
    <glyph glyph-name="c_h" horiz-adv-x="1064" 
d="M402 82l35 -52q-62 -42 -133 -42q-113 0 -185.5 73t-72.5 183q0 108 72.5 182t183.5 74q64 0 122 -33l-25 -57q-42 28 -102 28q-81 0 -131 -56.5t-50 -137.5q0 -84 50 -139t133 -55q24 0 54.5 9.5t48.5 22.5zM622 750v-348q59 98 174 98q100 0 142 -59.5t42 -176.5v-264
h-68v253q0 31 -2.5 55t-10.5 49.5t-21.5 42.5t-36.5 27.5t-55 10.5q-52 0 -95 -32t-69 -82v-324h-68v750h68z" />
    <glyph glyph-name="c_k" horiz-adv-x="956" 
d="M402 82l35 -52q-62 -42 -133 -42q-113 0 -185.5 73t-72.5 183q0 108 72.5 182t183.5 74q64 0 122 -33l-25 -57q-42 28 -102 28q-81 0 -131 -56.5t-50 -137.5q0 -84 50 -139t133 -55q24 0 54.5 9.5t48.5 22.5zM925 488l-166 -196l190 -292h-83l-153 237l-91 -107v-130h-68
v750h68v-527l2 -1l220 266h81z" />
    <glyph glyph-name="T_h" horiz-adv-x="1087" 
d="M461 632h-181v-632h-74v632h-181v68h436v-68zM645 750v-348q59 98 174 98q100 0 142 -59.5t42 -176.5v-264h-68v253q0 31 -2.5 55t-10.5 49.5t-21.5 42.5t-36.5 27.5t-55 10.5q-52 0 -95 -32t-69 -82v-324h-68v750h68z" />
    <glyph glyph-name="zerosuperior" horiz-adv-x="330" 
d="M165 416q82 0 82 153t-82 153t-82 -153t82 -153zM165 775q66 0 103 -54.5t37 -151.5t-37 -151.5t-103 -54.5t-103 54.5t-37 151.5t37 151.5t103 54.5z" />
    <glyph glyph-name="foursuperior" horiz-adv-x="325" 
d="M22 533q6 7 174 238h57v-245h60v-53h-60v-106h-56v106h-175v60zM197 526v162q-74 -115 -112 -162h112z" />
    <glyph glyph-name="fivesuperior" horiz-adv-x="306" 
d="M257 718h-143q-1 -39 -9 -108q21 9 53 9q49 0 84.5 -35t35.5 -85q0 -57 -38.5 -96.5t-95.5 -39.5q-38 0 -72.5 20t-50.5 51l52 28q20 -45 71 -45q35 0 55.5 23.5t20.5 56.5q0 31 -21 51.5t-53 20.5q-39 0 -61 -26l-41 27q10 96 14 201h199v-53z" />
    <glyph glyph-name="sixsuperior" horiz-adv-x="321" 
d="M225 790l23 -48q-126 -62 -153 -154q33 35 83 35q51 0 84.5 -37t33.5 -89q0 -55 -35.5 -94.5t-90.5 -39.5q-66 0 -105 48t-39 111q0 87 56.5 158t142.5 110zM166 571q-26 0 -48.5 -13t-33.5 -34q0 -47 19.5 -78t61.5 -31q34 0 54 23.5t20 57.5q0 35 -20.5 55t-52.5 20z
" />
    <glyph glyph-name="sevensuperior" horiz-adv-x="268" 
d="M256 771v-45q-89 -187 -163 -366l-53 22q57 138 151 336h-185v53h250z" />
    <glyph glyph-name="eightsuperior" horiz-adv-x="339" 
d="M169 775q55 0 89.5 -31.5t34.5 -77.5q0 -55 -50 -86q61 -36 61 -100q0 -49 -37 -83t-98 -34q-60 0 -97 34t-37 83q0 64 61 100q-50 31 -50 86q0 46 34.5 77.5t88.5 31.5zM169 604q28 0 47.5 17.5t19.5 42.5t-19.5 41.5t-47.5 16.5q-27 0 -46.5 -16.5t-19.5 -41.5
t19.5 -42.5t46.5 -17.5zM169 416q32 0 54.5 19t22.5 47t-22.5 47.5t-54.5 19.5q-31 0 -53.5 -19.5t-22.5 -47.5t22.5 -47t53.5 -19z" />
    <glyph glyph-name="ninesuperior" horiz-adv-x="321" 
d="M96 348l-23 48q126 62 153 154q-33 -35 -83 -35q-51 0 -84.5 37t-33.5 89q0 55 35.5 94.5t90.5 39.5q66 0 105 -48t39 -111q0 -87 -56.5 -158t-142.5 -110zM155 567q26 0 48.5 13t33.5 34q0 47 -19.5 78t-61.5 31q-34 0 -54 -23.5t-20 -57.5q0 -35 20.5 -55t52.5 -20z
" />
    <glyph glyph-name="parenleftsuperior" horiz-adv-x="209" 
d="M215 306l-18 -43q-162 99 -162 288q0 185 162 285l19 -43q-125 -83 -125 -242q0 -167 124 -245z" />
    <glyph glyph-name="parenrightsuperior" horiz-adv-x="209" 
d="M11 263l-18 43q125 78 125 245q0 158 -125 242l19 43q162 -100 162 -285q0 -189 -163 -288z" />
    <glyph glyph-name="minussuperior" horiz-adv-x="340" 
d="M34 577h272v-51h-272v51z" />
    <glyph glyph-name="plussuperior" horiz-adv-x="331" 
d="M140 401v125h-125v51h125v125h51v-125h125v-51h-125v-125h-51z" />
    <glyph glyph-name="equalsuperior" horiz-adv-x="340" 
d="M34 509h272v-51h-272v51zM34 645h272v-51h-272v51z" />
    <glyph glyph-name="a.sup" horiz-adv-x="335" 
d="M169 556q27 0 62 -8v10q0 74 -70 74q-47 0 -97 -25l-18 46q60 30 125 30q117 0 117 -128v-188h-52l-3 32q-31 -39 -89 -39q-47 0 -78.5 25t-31.5 71q0 53 39 76.5t96 23.5zM231 506q-34 7 -56 7q-85 0 -85 -55q0 -25 16.5 -38t40.5 -13q38 0 84 37v62z" />
    <glyph glyph-name="b.sup" horiz-adv-x="384" 
d="M109 817v-186q31 52 98 52q63 0 107 -46.5t44 -115.5q0 -67 -44 -114t-110 -47q-63 0 -95 46l-3 -39h-54v450h57zM198 630q-27 0 -51.5 -15t-37.5 -43v-113q31 -46 89 -46q49 0 75 33.5t26 75.5q0 44 -27 76t-74 32z" />
    <glyph glyph-name="c.sup" horiz-adv-x="286" 
d="M252 435l27 -44q-38 -31 -100 -31q-67 0 -110 45t-43 116q0 66 45 114t112 48q48 0 92 -28l-26 -46q-29 21 -65 21q-40 0 -69.5 -31.5t-29.5 -77.5q0 -49 29 -79t69 -30q38 0 69 23z" />
    <glyph glyph-name="d.sup" horiz-adv-x="384" 
d="M278 367l-3 42q-15 -24 -43 -36.5t-55 -12.5q-63 0 -107 46.5t-44 115.5q0 67 44 114t110 47q60 0 95 -41v175h57v-450h-54zM186 413q27 0 52 15.5t37 43.5v111q-32 47 -89 47q-49 0 -75 -33.5t-26 -75.5q0 -44 27 -76t74 -32z" />
    <glyph glyph-name="e.sup" horiz-adv-x="347" 
d="M274 461l42 -26q-26 -39 -58 -57t-80 -18q-70 0 -111 45t-41 114q0 70 44 117t109 47q62 0 101.5 -41t39.5 -102q0 -5 -3 -35h-234q4 -40 30.5 -67t67.5 -27q65 0 93 50zM182 632q-37 0 -61 -21.5t-33 -57.5h174q-2 34 -24.5 56.5t-55.5 22.5z" />
    <glyph glyph-name="f.sup" horiz-adv-x="218" 
d="M232 812l-18 -48q-23 7 -40 7q-29 0 -38.5 -16t-9.5 -49v-31h82v-53h-82v-255h-57v255h-35v53h35v33q0 58 22.5 87t80.5 29q24 0 60 -12z" />
    <glyph glyph-name="g.sup" horiz-adv-x="379" 
d="M186 420q27 0 51.5 15t37.5 43v106q-31 46 -89 46q-49 0 -75 -33t-26 -73q0 -42 27 -73t74 -31zM275 374v45q-31 -52 -98 -52q-63 0 -107 45.5t-44 112.5q0 64 44 111t110 47q63 0 95 -46l3 38h54v-288q0 -79 -43 -116.5t-110 -37.5q-81 0 -135 41l21 48q49 -36 114 -36
q41 0 68.5 23t27.5 65z" />
    <glyph glyph-name="h.sup" horiz-adv-x="368" 
d="M109 367h-57v450h57v-189q36 55 95 55q116 0 116 -145v-171h-57v156q0 20 -0.5 32t-4.5 28.5t-10.5 25t-20 15t-32.5 6.5q-25 0 -49 -15t-37 -39v-209z" />
    <glyph glyph-name="i.sup" horiz-adv-x="161" 
d="M109 367h-57v308h57v-308zM109 729h-57v65h57v-65z" />
    <glyph glyph-name="j.sup" horiz-adv-x="183" 
d="M-20 247l17 47q14 -6 32 -6q27 0 36 11t9 39v337h57v-330q0 -51 -20 -80.5t-72 -29.5q-30 0 -59 12zM131 729h-57v65h57v-65z" />
    <glyph glyph-name="k.sup" horiz-adv-x="318" 
d="M109 817v-295h1l125 153h70l-110 -127l118 -181h-70l-87 136l-47 -56v-80h-57v450h57z" />
    <glyph glyph-name="l.sup" horiz-adv-x="161" 
d="M109 817v-450h-57v450h57z" />
    <glyph glyph-name="m.sup" horiz-adv-x="561" 
d="M109 367h-57v308h54l2 -48q36 56 91 56q69 0 96 -58q40 58 106 58q112 0 112 -145v-171h-57v156q0 20 -0.5 32t-4 28.5t-10 25t-19 15t-30.5 6.5q-21 0 -45 -15.5t-38 -41.5q2 -22 2 -35v-171h-57v156q0 20 -0.5 32t-4 28.5t-10 25t-19 15t-30.5 6.5q-22 0 -45 -15.5
t-36 -38.5v-209z" />
    <glyph glyph-name="n.sup" horiz-adv-x="368" 
d="M109 367h-57v308h54l2 -48q36 56 96 56q116 0 116 -145v-171h-57v156q0 20 -0.5 32t-4.5 28.5t-10.5 25t-20 15t-32.5 6.5q-25 0 -49 -15t-37 -39v-209z" />
    <glyph glyph-name="o.sup" horiz-adv-x="364" 
d="M182 683q67 0 111.5 -47t44.5 -115q0 -67 -44.5 -114t-111.5 -47t-111.5 47t-44.5 114q0 68 44.5 115t111.5 47zM279 521q0 46 -27 77.5t-70 31.5t-70 -31.5t-27 -77.5q0 -45 27 -76.5t70 -31.5t70 31.5t27 76.5z" />
    <glyph glyph-name="p.sup" horiz-adv-x="384" 
d="M106 675l3 -41q15 24 43 36.5t55 12.5q63 0 107 -46.5t44 -115.5q0 -67 -44 -114t-110 -47q-60 0 -95 41v-188h-57v462h54zM198 630q-27 0 -52 -15.5t-37 -43.5v-111q32 -47 89 -47q49 0 75 33.5t26 75.5q0 44 -27 76t-74 32z" />
    <glyph glyph-name="q.sup" horiz-adv-x="384" 
d="M275 213v199q-31 -52 -98 -52q-63 0 -107 46.5t-44 115.5q0 67 44 114t110 47q63 0 95 -46l3 38h54v-462h-57zM186 413q27 0 51.5 15t37.5 43v113q-31 46 -89 46q-49 0 -75 -33.5t-26 -75.5q0 -44 27 -76t74 -32z" />
    <glyph glyph-name="r.sup" horiz-adv-x="220" 
d="M109 367h-57v308h54l2 -47q31 55 76 55q16 0 32 -4l-13 -61q-12 6 -27 6q-44 0 -67 -45v-212z" />
    <glyph glyph-name="s.sup" horiz-adv-x="286" 
d="M245 647l-36 -37q-26 24 -61 24q-20 0 -32.5 -10.5t-12.5 -25.5q0 -25 53 -45q20 -8 33.5 -14.5t29.5 -18t24.5 -28t8.5 -36.5q0 -48 -32.5 -72t-78.5 -24q-69 0 -110 49l39 32q30 -32 70 -32q23 0 39 11.5t16 33.5q0 15 -12.5 24t-38.5 19q-22 8 -34 13.5t-28.5 17
t-24 27.5t-7.5 38q0 43 28 66.5t71 23.5q57 0 96 -36z" />
    <glyph glyph-name="t.sup" horiz-adv-x="227" 
d="M197 421l16 -46q-23 -15 -57 -15q-91 0 -91 112v150h-41v53h38l5 71h55v-71h84v-53h-84v-136q0 -17 0.5 -26.5t4 -22t12 -18.5t22.5 -6q18 0 36 8z" />
    <glyph glyph-name="u.sup" horiz-adv-x="368" 
d="M259 675h57v-308h-54l-2 48q-36 -56 -96 -56q-116 0 -116 145v171h57v-156q0 -20 0.5 -32t4.5 -28.5t10.5 -25t20 -15t32.5 -6.5q25 0 49 15t37 39v209z" />
    <glyph glyph-name="v.sup" horiz-adv-x="297" 
d="M149 442h1l80 233h62l-121 -308h-49l-117 308h63z" />
    <glyph glyph-name="w.sup" horiz-adv-x="444" 
d="M222 596l-69 -229h-63l-85 308h61l58 -235h1l69 235h59l62 -233h2l63 233h59l-91 -308h-61z" />
    <glyph glyph-name="x.sup" horiz-adv-x="311" 
d="M13 675h73l74 -108l74 108h72l-113 -150l113 -158h-74l-77 113l-78 -113h-72l116 154z" />
    <glyph glyph-name="y.sup" horiz-adv-x="295" 
d="M149 442h1l80 233h62l-173 -442l-50 19l49 124l-113 299h63z" />
    <glyph glyph-name="z.sup" horiz-adv-x="280" 
d="M35 395l133 227h-139v53h217v-27l-132 -227h143v-54h-222v28z" />
    <glyph glyph-name="zeroinferior" horiz-adv-x="330" 
d="M165 -129q82 0 82 153t-82 153t-82 -153t82 -153zM165 230q66 0 103 -54.5t37 -151.5t-37 -151.5t-103 -54.5t-103 54.5t-37 151.5t37 151.5t103 54.5z" />
    <glyph glyph-name="oneinferior" horiz-adv-x="209" 
d="M151 -178h-58v334q-26 -14 -57 -28v56q49 24 79 42h36v-404z" />
    <glyph glyph-name="twoinferior" horiz-adv-x="313" 
d="M44 -177v50q85 97 136 173q32 49 32 81q0 23 -18 37t-43 14q-27 0 -44 -16.5t-17 -43.5l-56 12q4 43 40.5 72t80.5 29q46 0 80.5 -29.5t34.5 -75.5q0 -42 -44 -113q-19 -30 -104 -137h169v-53h-247z" />
    <glyph glyph-name="threeinferior" horiz-adv-x="304" 
d="M90 -1v58h13q37 0 64 14.5t27 49.5q0 24 -17.5 40t-44.5 16q-23 0 -39.5 -12.5t-20.5 -31.5l-50 21q10 35 40 55.5t69 20.5q52 0 86 -29.5t34 -77.5q0 -27 -13.5 -50.5t-31.5 -33.5q26 -10 45.5 -36t19.5 -60q0 -58 -38 -91.5t-93 -33.5q-38 0 -71 18t-51 52l49 25
q22 -42 75 -42q29 0 50 16t21 48t-23 50t-59 18q-25 0 -41 -4z" />
    <glyph glyph-name="fourinferior" horiz-adv-x="325" 
d="M22 -12q6 7 174 238h57v-245h60v-53h-60v-106h-56v106h-175v60zM197 -19v162q-74 -115 -112 -162h112z" />
    <glyph glyph-name="fiveinferior" horiz-adv-x="306" 
d="M257 173h-143q-1 -39 -9 -108q21 9 53 9q49 0 84.5 -35t35.5 -85q0 -57 -38.5 -96.5t-95.5 -39.5q-38 0 -72.5 20t-50.5 51l52 28q20 -45 71 -45q35 0 55.5 23.5t20.5 56.5q0 31 -21 51.5t-53 20.5q-39 0 -61 -26l-41 27q10 95 14 201h199v-53z" />
    <glyph glyph-name="sixinferior" horiz-adv-x="321" 
d="M225 245l23 -48q-126 -62 -153 -154q33 35 83 35q51 0 84.5 -37t33.5 -89q0 -55 -35.5 -94.5t-90.5 -39.5q-66 0 -105 48t-39 111q0 87 56.5 158t142.5 110zM166 26q-26 0 -48.5 -13t-33.5 -34q0 -47 19.5 -78t61.5 -31q34 0 54 23.5t20 57.5q0 35 -20.5 55t-52.5 20z
" />
    <glyph glyph-name="seveninferior" horiz-adv-x="268" 
d="M256 226v-45q-89 -187 -163 -366l-53 22q57 138 151 336h-185v53h250z" />
    <glyph glyph-name="eightinferior" horiz-adv-x="339" 
d="M169 230q55 0 89.5 -31.5t34.5 -77.5q0 -55 -50 -86q61 -36 61 -100q0 -49 -37 -83t-98 -34q-60 0 -97 34t-37 83q0 64 61 100q-50 31 -50 86q0 46 34.5 77.5t88.5 31.5zM169 59q28 0 47.5 17.5t19.5 42.5t-19.5 41.5t-47.5 16.5q-27 0 -46.5 -16.5t-19.5 -41.5
t19.5 -42.5t46.5 -17.5zM169 -129q32 0 54.5 19t22.5 47t-22.5 47.5t-54.5 19.5q-31 0 -53.5 -19.5t-22.5 -47.5t22.5 -47t53.5 -19z" />
    <glyph glyph-name="nineinferior" horiz-adv-x="321" 
d="M96 -197l-23 48q126 62 153 154q-33 -35 -83 -35q-51 0 -84.5 37t-33.5 89q0 55 35.5 94.5t90.5 39.5q66 0 105 -48t39 -111q0 -87 -56.5 -158t-142.5 -110zM155 22q26 0 48.5 13t33.5 34q0 47 -19.5 78t-61.5 31q-34 0 -54 -23.5t-20 -57.5q0 -35 20.5 -55t52.5 -20z
" />
    <glyph glyph-name="parenleftinferior" horiz-adv-x="209" 
d="M215 -239l-18 -43q-162 99 -162 288q0 185 162 285l19 -43q-125 -83 -125 -242q0 -167 124 -245z" />
    <glyph glyph-name="parenrightinferior" horiz-adv-x="209" 
d="M11 -282l-18 43q125 78 125 245q0 158 -125 242l19 43q162 -100 162 -285q0 -189 -163 -288z" />
    <glyph glyph-name="minusinferior" horiz-adv-x="340" 
d="M34 32h272v-51h-272v51z" />
    <glyph glyph-name="plusinferior" horiz-adv-x="331" 
d="M140 -144v125h-125v51h125v125h51v-125h125v-51h-125v-125h-51z" />
    <glyph glyph-name="equalinferior" horiz-adv-x="340" 
d="M34 -36h272v-51h-272v51zM34 100h272v-51h-272v51z" />
    <glyph glyph-name="a.sinf" horiz-adv-x="335" 
d="M169 11q27 0 62 -8v10q0 74 -70 74q-47 0 -97 -25l-18 46q60 30 125 30q117 0 117 -128v-188h-52l-3 32q-31 -39 -89 -39q-47 0 -78.5 25t-31.5 71q0 53 39 76.5t96 23.5zM231 -39q-34 7 -56 7q-85 0 -85 -55q0 -25 16.5 -38t40.5 -13q38 0 84 37v62z" />
    <glyph glyph-name="b.sinf" horiz-adv-x="384" 
d="M109 272v-186q31 52 98 52q63 0 107 -46.5t44 -115.5q0 -67 -44 -114t-110 -47q-63 0 -95 46l-3 -39h-54v450h57zM198 85q-27 0 -51.5 -15t-37.5 -43v-113q31 -46 89 -46q49 0 75 33.5t26 75.5q0 44 -27 76t-74 32z" />
    <glyph glyph-name="c.sinf" horiz-adv-x="286" 
d="M252 -110l27 -44q-38 -31 -100 -31q-67 0 -110 45t-43 116q0 66 45 114t112 48q48 0 92 -28l-26 -46q-29 21 -65 21q-40 0 -69.5 -31.5t-29.5 -77.5q0 -49 29 -79t69 -30q38 0 69 23z" />
    <glyph glyph-name="d.sinf" horiz-adv-x="384" 
d="M278 -178l-3 42q-15 -24 -43 -36.5t-55 -12.5q-63 0 -107 46.5t-44 115.5q0 67 44 114t110 47q60 0 95 -41v175h57v-450h-54zM186 -132q27 0 52 15.5t37 43.5v111q-32 47 -89 47q-49 0 -75 -33.5t-26 -75.5q0 -44 27 -76t74 -32z" />
    <glyph glyph-name="e.sinf" horiz-adv-x="347" 
d="M274 -84l42 -26q-26 -39 -58 -57t-80 -18q-70 0 -111 45t-41 114q0 70 44 117t109 47q62 0 101.5 -41t39.5 -102q0 -5 -3 -35h-234q4 -40 30.5 -67t67.5 -27q65 0 93 50zM182 87q-37 0 -61 -21.5t-33 -57.5h174q-2 34 -24.5 56.5t-55.5 22.5z" />
    <glyph glyph-name="f.sinf" horiz-adv-x="218" 
d="M232 267l-18 -48q-23 7 -40 7q-29 0 -38.5 -16t-9.5 -49v-31h82v-53h-82v-255h-57v255h-35v53h35v33q0 58 22.5 87t80.5 29q24 0 60 -12z" />
    <glyph glyph-name="g.sinf" horiz-adv-x="379" 
d="M186 -125q27 0 51.5 15t37.5 43v106q-31 46 -89 46q-49 0 -75 -33t-26 -73q0 -42 27 -73t74 -31zM275 -171v45q-31 -52 -98 -52q-63 0 -107 45.5t-44 112.5q0 64 44 111t110 47q63 0 95 -46l3 38h54v-288q0 -79 -43 -116.5t-110 -37.5q-81 0 -135 41l21 48
q49 -36 114 -36q41 0 68.5 23t27.5 65z" />
    <glyph glyph-name="h.sinf" horiz-adv-x="368" 
d="M109 -178h-57v450h57v-189q36 55 95 55q116 0 116 -145v-171h-57v156q0 20 -0.5 32t-4.5 28.5t-10.5 25t-20 15t-32.5 6.5q-25 0 -49 -15t-37 -39v-209z" />
    <glyph glyph-name="i.sinf" horiz-adv-x="161" 
d="M109 -178h-57v308h57v-308zM109 184h-57v65h57v-65z" />
    <glyph glyph-name="j.sinf" horiz-adv-x="183" 
d="M-20 -298l17 47q14 -6 32 -6q27 0 36 11t9 39v337h57v-330q0 -51 -20 -80.5t-72 -29.5q-30 0 -59 12zM131 184h-57v65h57v-65z" />
    <glyph glyph-name="k.sinf" horiz-adv-x="318" 
d="M109 272v-295h1l125 153h70l-110 -127l118 -181h-70l-87 136l-47 -56v-80h-57v450h57z" />
    <glyph glyph-name="l.sinf" horiz-adv-x="161" 
d="M109 272v-450h-57v450h57z" />
    <glyph glyph-name="m.sinf" horiz-adv-x="561" 
d="M109 -178h-57v308h54l2 -48q36 56 91 56q69 0 96 -58q40 58 106 58q112 0 112 -145v-171h-57v156q0 20 -0.5 32t-4 28.5t-10 25t-19 15t-30.5 6.5q-21 0 -45 -15.5t-38 -41.5q2 -22 2 -35v-171h-57v156q0 20 -0.5 32t-4 28.5t-10 25t-19 15t-30.5 6.5q-22 0 -45 -15.5
t-36 -38.5v-209z" />
    <glyph glyph-name="n.sinf" horiz-adv-x="368" 
d="M109 -178h-57v308h54l2 -48q36 56 96 56q116 0 116 -145v-171h-57v156q0 20 -0.5 32t-4.5 28.5t-10.5 25t-20 15t-32.5 6.5q-25 0 -49 -15t-37 -39v-209z" />
    <glyph glyph-name="o.sinf" horiz-adv-x="364" 
d="M182 138q67 0 111.5 -47t44.5 -115q0 -67 -44.5 -114t-111.5 -47t-111.5 47t-44.5 114q0 68 44.5 115t111.5 47zM279 -24q0 46 -27 77.5t-70 31.5t-70 -31.5t-27 -77.5q0 -45 27 -76.5t70 -31.5t70 31.5t27 76.5z" />
    <glyph glyph-name="p.sinf" horiz-adv-x="384" 
d="M106 130l3 -41q15 24 43 36.5t55 12.5q63 0 107 -46.5t44 -115.5q0 -67 -44 -114t-110 -47q-60 0 -95 41v-188h-57v462h54zM198 85q-27 0 -52 -15.5t-37 -43.5v-111q32 -47 89 -47q49 0 75 33.5t26 75.5q0 44 -27 76t-74 32z" />
    <glyph glyph-name="q.sinf" horiz-adv-x="384" 
d="M275 -332v199q-31 -52 -98 -52q-63 0 -107 46.5t-44 115.5q0 67 44 114t110 47q63 0 95 -46l3 38h54v-462h-57zM186 -132q27 0 51.5 15t37.5 43v113q-31 46 -89 46q-49 0 -75 -33.5t-26 -75.5q0 -44 27 -76t74 -32z" />
    <glyph glyph-name="r.sinf" horiz-adv-x="220" 
d="M109 -178h-57v308h54l2 -47q31 55 76 55q16 0 32 -4l-13 -61q-12 6 -27 6q-44 0 -67 -45v-212z" />
    <glyph glyph-name="s.sinf" horiz-adv-x="286" 
d="M245 102l-36 -37q-26 24 -61 24q-20 0 -32.5 -10.5t-12.5 -25.5q0 -25 53 -45q20 -8 33.5 -14.5t29.5 -18t24.5 -28t8.5 -36.5q0 -48 -32.5 -72t-78.5 -24q-69 0 -110 49l39 32q30 -32 70 -32q23 0 39 11.5t16 33.5q0 15 -12.5 24t-38.5 19q-22 8 -34 13.5t-28.5 17
t-24 27.5t-7.5 38q0 43 28 66.5t71 23.5q57 0 96 -36z" />
    <glyph glyph-name="t.sinf" horiz-adv-x="227" 
d="M197 -124l16 -46q-23 -15 -57 -15q-91 0 -91 112v150h-41v53h38l5 71h55v-71h84v-53h-84v-136q0 -17 0.5 -26.5t4 -22t12 -18.5t22.5 -6q18 0 36 8z" />
    <glyph glyph-name="u.sinf" horiz-adv-x="368" 
d="M259 130h57v-308h-54l-2 48q-36 -56 -96 -56q-116 0 -116 145v171h57v-156q0 -20 0.5 -32t4.5 -28.5t10.5 -25t20 -15t32.5 -6.5q25 0 49 15t37 39v209z" />
    <glyph glyph-name="v.sinf" horiz-adv-x="297" 
d="M149 -103h1l80 233h62l-121 -308h-49l-117 308h63z" />
    <glyph glyph-name="w.sinf" horiz-adv-x="444" 
d="M222 51l-69 -229h-63l-85 308h61l58 -235h1l69 235h59l62 -233h2l63 233h59l-91 -308h-61z" />
    <glyph glyph-name="x.sinf" horiz-adv-x="311" 
d="M13 130h73l74 -108l74 108h72l-113 -150l113 -158h-74l-77 113l-78 -113h-72l116 154z" />
    <glyph glyph-name="y.sinf" horiz-adv-x="295" 
d="M149 -103h1l80 233h62l-173 -442l-50 19l49 124l-113 299h63z" />
    <glyph glyph-name="z.sinf" horiz-adv-x="280" 
d="M35 -150l133 227h-139v53h217v-27l-132 -227h143v-54h-222v28z" />
    <glyph glyph-name="zero.num" horiz-adv-x="301" 
d="M151 654q-71 0 -71 -135t71 -135q70 0 70 135t-70 135zM277 519q0 -87 -33 -136t-93 -49q-61 0 -94 49t-33 136t33 136t94 49q60 0 93 -49t33 -136z" />
    <glyph glyph-name="one.num" horiz-adv-x="206" 
d="M149 338h-54v293q-30 -13 -51 -21v50q58 30 75 40h30v-362z" />
    <glyph glyph-name="two.num" horiz-adv-x="288" 
d="M267 338h-228v46q75 82 125 156q28 41 28 68q0 21 -15.5 33.5t-38.5 12.5t-37.5 -15.5t-14.5 -41.5l-56 11q3 40 36.5 68t75.5 28t74.5 -27t32.5 -71q0 -40 -39 -100q-35 -52 -94 -118h151v-50z" />
    <glyph glyph-name="three.num" horiz-adv-x="288" 
d="M88 495l1 53q32 0 48 4q46 15 46 55q0 21 -15.5 34.5t-41.5 13.5q-42 0 -53 -41l-50 20q12 32 40 51t63 19q48 0 80.5 -27t32.5 -70q0 -23 -12.5 -43.5t-30.5 -31.5q27 -10 43.5 -34t16.5 -55q0 -49 -34.5 -79t-87.5 -30q-36 0 -67.5 17.5t-47.5 49.5l48 24
q21 -42 69 -42q27 0 45 15t18 42t-21 43t-54 16q-22 0 -36 -4z" />
    <glyph glyph-name="four.num" horiz-adv-x="298" 
d="M21 485q93 124 156 215h54v-220h55v-49h-55v-93h-54v93h-156v54zM177 480v138q-7 -10 -43.5 -65.5t-49.5 -72.5h93z" />
    <glyph glyph-name="five.num" horiz-adv-x="284" 
d="M242 650h-129q-1 -18 -3.5 -50.5t-3.5 -42.5q19 8 46 8q43 0 75 -32t32 -78q0 -52 -35 -86.5t-87 -34.5q-36 0 -67.5 17.5t-47.5 47.5l49 25q17 -42 65 -42q30 0 48 20t18 50q0 29 -18.5 47.5t-46.5 18.5q-34 0 -56 -25l-35 28q10 96 13 179h183v-50z" />
    <glyph glyph-name="six.num" horiz-adv-x="295" 
d="M205 720l22 -44q-56 -27 -90 -57.5t-49 -75.5q30 28 73 28q48 0 79 -33t31 -79q0 -52 -32.5 -88.5t-85.5 -36.5q-60 0 -94.5 44t-34.5 102q0 79 51 142t130 98zM80 482q0 -42 17.5 -71t53.5 -29q29 0 46.5 21t17.5 51q0 31 -17.5 49.5t-46.5 18.5q-49 0 -71 -40z" />
    <glyph glyph-name="seven.num" horiz-adv-x="246" 
d="M234 662q-103 -223 -148 -334l-50 24q49 112 140 298h-170v50h228v-38z" />
    <glyph glyph-name="eight.num" horiz-adv-x="313" 
d="M278 438q0 -42 -33 -73t-88 -31q-56 0 -89 31t-33 73q0 57 54 90q-45 27 -45 77q0 41 32 70t81 29q48 0 80 -29t32 -70q0 -50 -45 -77q54 -33 54 -90zM100 602q0 -22 16.5 -37.5t40.5 -15.5q23 0 39.5 15.5t16.5 37.5q0 23 -16 38t-40 15q-25 0 -41 -15t-16 -38zM92 442
q0 -25 18.5 -42t46.5 -17t46 17t18 42q0 26 -18 43.5t-46 17.5t-46.5 -17.5t-18.5 -43.5z" />
    <glyph glyph-name="nine.num" horiz-adv-x="295" 
d="M90 318l-22 44q56 27 90 57.5t49 75.5q-30 -28 -73 -28q-48 0 -79 33t-31 79q0 52 32.5 88.5t85.5 36.5q60 0 94.5 -44t34.5 -102q0 -79 -51 -142t-130 -98zM215 556q0 42 -17.5 71t-53.5 29q-29 0 -46.5 -21t-17.5 -51q0 -31 17.5 -49.5t46.5 -18.5q49 0 71 40z" />
    <glyph glyph-name="parenleft.ordn" horiz-adv-x="237" 
d="M236 314l-16 -41q-177 108 -177 317q0 208 174 318l20 -41q-140 -92 -140 -277q0 -187 139 -276z" />
    <glyph glyph-name="parenright.ordn" horiz-adv-x="237" 
d="M17 273l-16 41q139 89 139 276q0 186 -140 277l20 41q174 -110 174 -318q0 -209 -177 -317z" />
    <glyph glyph-name="hyphen.ordn" horiz-adv-x="308" 
d="M239 549h-170v53h170v-53z" />
    <glyph glyph-name="comma.ordn" horiz-adv-x="185" 
d="M120 462l-43 -165h-57l34 165h66z" />
    <glyph glyph-name="period.ordn" horiz-adv-x="191" 
d="M130 387h-68v75h68v-75z" />
    <glyph glyph-name="minus.ordn" horiz-adv-x="383" 
d="M45 599h293v-50h-293v50z" />
    <glyph glyph-name="plus.ordn" horiz-adv-x="365" 
d="M157 408v141h-141v50h141v141h50v-141h141v-50h-141v-141h-50z" />
    <glyph glyph-name="equal.ordn" horiz-adv-x="383" 
d="M45 530h293v-50h-293v50zM45 668h293v-50h-293v50z" />
    <glyph glyph-name="a.ordn" horiz-adv-x="377" 
d="M261 585v17q0 41 -18 61t-60 20q-50 0 -110 -27l-18 47q72 31 133 31q73 0 101 -37t28 -105v-206h-52l-3 38q-39 -46 -98 -46q-52 0 -87.5 27t-35.5 78q0 59 43.5 85t108.5 26q36 0 68 -9zM196 549q-100 0 -100 -63q0 -30 19.5 -44.5t50.5 -14.5q46 0 95 44v70
q-33 8 -65 8z" />
    <glyph glyph-name="b.ordn" horiz-adv-x="433" 
d="M122 886v-209q19 29 50 43t60 14q70 0 119 -52.5t49 -126.5q0 -72 -48 -124.5t-122 -52.5q-66 0 -107 48l-2 -40h-55v500h56zM228 680q-31 0 -61.5 -18.5t-44.5 -49.5v-124q18 -27 47 -41.5t58 -14.5q56 0 85.5 37t29.5 88t-31 87t-83 36z" />
    <glyph glyph-name="c.ordn" horiz-adv-x="316" 
d="M280 455l26 -45q-40 -32 -102 -32q-73 0 -122 50.5t-49 127.5q0 73 50.5 125.5t123.5 52.5q51 0 95 -27l-25 -49q-30 22 -74 22q-45 0 -78.5 -35t-33.5 -88q0 -56 33.5 -90.5t79.5 -34.5q47 0 76 23z" />
    <glyph glyph-name="d.ordn" horiz-adv-x="433" 
d="M311 687v199h56v-500h-55l-2 48q-17 -27 -47.5 -41.5t-61.5 -14.5q-70 0 -119 52.5t-49 126.5q0 72 48 124.5t122 52.5q67 0 108 -47zM206 680q-56 0 -85.5 -37t-29.5 -88t31 -87t83 -36q31 0 61.5 18.5t44.5 49.5v124q-18 27 -47 41.5t-58 14.5z" />
    <glyph glyph-name="e.ordn" horiz-adv-x="385" 
d="M307 485l40 -25q-53 -82 -149 -82q-78 0 -121.5 50t-43.5 128q0 75 48 126.5t118 51.5q68 0 110 -44.5t42 -113.5q0 -19 -2 -35h-262q4 -47 35 -79.5t79 -32.5q75 0 106 56zM202 683q-43 0 -72 -26t-38 -68h204q-2 39 -28.5 66.5t-65.5 27.5z" />
    <glyph glyph-name="f.ordn" horiz-adv-x="249" 
d="M253 880l-16 -50q-20 10 -43 10q-35 0 -46 -19.5t-11 -61.5v-33h93v-54h-93v-286h-56v286h-38v54h38v40q0 62 24 95t86 33q30 0 62 -14z" />
    <glyph glyph-name="g.ordn" horiz-adv-x="427" 
d="M205 440q31 0 61.5 18.5t44.5 49.5v116q-18 27 -47 41.5t-58 14.5q-56 0 -85.5 -36.5t-29.5 -84.5q0 -49 31.5 -84t82.5 -35zM311 443q-19 -29 -50 -43t-60 -14q-70 0 -119 51.5t-49 123.5q0 69 48 121t122 52q66 0 107 -48l2 40h55v-318q0 -90 -48 -131t-121 -41
q-84 0 -148 45l21 50q24 -17 62 -29t66 -12q48 0 80 25t32 77v51z" />
    <glyph glyph-name="h.ordn" horiz-adv-x="416" 
d="M122 886v-213q44 61 109 61q125 0 125 -177v-171h-56v167q0 30 -2 47.5t-9 38.5t-24 31t-45 10t-55.5 -18t-42.5 -44v-232h-56v500h56z" />
    <glyph glyph-name="i.ordn" horiz-adv-x="188" 
d="M122 386h-56v340h56v-340zM122 789h-56v69h56v-69z" />
    <glyph glyph-name="j.ordn" horiz-adv-x="195" 
d="M-27 253l16 46q14 -7 31 -7q34 0 44 19t10 60v355h56v-368q0 -55 -20.5 -87.5t-75.5 -32.5q-36 0 -61 15zM130 789h-56v69h56v-69z" />
    <glyph glyph-name="k.ordn" horiz-adv-x="352" 
d="M122 886v-333l142 173h69l-118 -139l131 -201h-68l-101 158l-55 -65v-93h-56v500h56z" />
    <glyph glyph-name="l.ordn" horiz-adv-x="187" 
d="M121 886v-500h-55v500h55z" />
    <glyph glyph-name="m.ordn" horiz-adv-x="624" 
d="M122 386h-56v340h54l2 -53q21 30 50.5 45.5t55.5 15.5q68 0 96 -60q50 60 126 60q114 0 114 -176v-172h-56v168q0 25 -1.5 41.5t-8 39t-23 34t-41.5 11.5q-55 0 -96 -53q5 -26 5 -69v-172h-56v168q0 26 -0.5 38.5t-4 32.5t-10.5 30t-21 17.5t-34 7.5q-23 0 -51.5 -18.5
t-43.5 -43.5v-232z" />
    <glyph glyph-name="n.ordn" horiz-adv-x="416" 
d="M122 386h-56v340h54l2 -53q44 61 109 61q125 0 125 -177v-171h-56v167q0 30 -2 47.5t-9 38.5t-24 31t-45 10t-55.5 -18t-42.5 -44v-232z" />
    <glyph glyph-name="o.ordn" horiz-adv-x="408" 
d="M204 734q72 0 121.5 -51.5t49.5 -126.5t-49.5 -126.5t-121.5 -51.5t-121.5 51.5t-49.5 126.5t49.5 126.5t121.5 51.5zM317 556q0 53 -32 88.5t-81 35.5t-81 -35.5t-32 -88.5t32 -88.5t81 -35.5t81 35.5t32 88.5z" />
    <glyph glyph-name="p.ordn" horiz-adv-x="433" 
d="M122 425v-205h-56v506h55l2 -48q17 27 47.5 41.5t61.5 14.5q70 0 119 -52.5t49 -126.5q0 -72 -48 -124.5t-122 -52.5q-67 0 -108 47zM227 432q56 0 85.5 37t29.5 88t-31 87t-83 36q-31 0 -61.5 -18.5t-44.5 -49.5v-124q18 -27 47 -41.5t58 -14.5z" />
    <glyph glyph-name="q.ordn" horiz-adv-x="433" 
d="M311 220v215q-19 -29 -50 -43t-60 -14q-70 0 -119 52.5t-49 126.5q0 72 48 124.5t122 52.5q66 0 107 -48l2 40h55v-506h-56zM205 432q31 0 61.5 18.5t44.5 49.5v124q-18 27 -47 41.5t-58 14.5q-56 0 -85.5 -37t-29.5 -88t31 -87t83 -36z" />
    <glyph glyph-name="r.ordn" horiz-adv-x="256" 
d="M204 734q18 0 35 -4l-9 -58q-13 4 -33 4q-50 0 -75 -49v-241h-56v340h54l2 -51q32 59 82 59z" />
    <glyph glyph-name="s.ordn" horiz-adv-x="317" 
d="M265 695l-39 -36q-22 24 -63 24q-24 0 -37.5 -12.5t-13.5 -32.5q0 -18 14.5 -29.5t42.5 -22.5q23 -9 37 -15.5t32.5 -19.5t27.5 -30.5t9 -39.5q0 -51 -34 -77t-85 -26q-74 0 -118 53l45 33q32 -35 70 -35q27 0 45.5 14.5t18.5 38.5q0 14 -11 25t-22.5 16.5t-34.5 14.5
q-22 8 -34 14t-28 17.5t-23.5 27.5t-7.5 37q0 47 30.5 73.5t75.5 26.5q64 0 103 -39z" />
    <glyph glyph-name="t.ordn" horiz-adv-x="244" 
d="M205 441l18 -50q-23 -13 -62 -13q-98 0 -98 124v170h-47v54h47l5 78h51v-78h95v-54h-95v-152q0 -25 2 -41t14 -31.5t33 -15.5t37 9z" />
    <glyph glyph-name="u.ordn" horiz-adv-x="416" 
d="M294 726h56v-340h-54l-2 53q-44 -61 -109 -61q-125 0 -125 177v171h56v-167q0 -30 2 -47.5t9 -38.5t24 -31t45 -10t55.5 18t42.5 44v232z" />
    <glyph glyph-name="v.ordn" horiz-adv-x="312" 
d="M305 726l-127 -340h-47l-124 340h63l86 -245h2l86 245h61z" />
    <glyph glyph-name="w.ordn" horiz-adv-x="485" 
d="M272 726l74 -260h2l72 260h58l-97 -340h-63l-76 259h-1l-79 -259h-62l-93 340h60l67 -260h2l81 260h55z" />
    <glyph glyph-name="x.ordn" horiz-adv-x="326" 
d="M319 386h-72l-85 126l-86 -126h-69l126 174l-118 166h72l82 -119l81 119h69l-122 -169z" />
    <glyph glyph-name="y.ordn" horiz-adv-x="309" 
d="M305 726l-181 -480l-50 22l51 133l-118 325h63l86 -245h2l86 245h61z" />
    <glyph glyph-name="z.ordn" horiz-adv-x="311" 
d="M46 416l150 256h-159v54h234v-27l-152 -259h163v-54h-236v30z" />
    <glyph glyph-name="zero.denom" horiz-adv-x="301" 
d="M151 316q-71 0 -71 -135t71 -135q70 0 70 135t-70 135zM277 181q0 -87 -33 -136t-93 -49q-61 0 -94 49t-33 136t33 136t94 49q60 0 93 -49t33 -136z" />
    <glyph glyph-name="one.denom" horiz-adv-x="206" 
d="M149 0h-54v293q-30 -13 -51 -21v50q58 30 75 40h30v-362z" />
    <glyph glyph-name="two.denom" horiz-adv-x="288" 
d="M267 0h-228v46q75 82 125 156q28 41 28 68q0 21 -15.5 33.5t-38.5 12.5t-37.5 -15.5t-14.5 -41.5l-56 11q3 40 36.5 68t75.5 28t74.5 -27t32.5 -71q0 -40 -39 -100q-35 -52 -94 -118h151v-50z" />
    <glyph glyph-name="three.denom" horiz-adv-x="288" 
d="M88 157l1 53q32 0 48 4q46 15 46 55q0 21 -15.5 34.5t-41.5 13.5q-42 0 -53 -41l-50 20q12 32 40 51t63 19q48 0 80.5 -27t32.5 -70q0 -23 -12.5 -43.5t-30.5 -31.5q27 -10 43.5 -34t16.5 -55q0 -49 -34.5 -79t-87.5 -30q-36 0 -67.5 17.5t-47.5 49.5l48 24
q21 -42 69 -42q27 0 45 15t18 42t-21 43t-54 16q-22 0 -36 -4z" />
    <glyph glyph-name="four.denom" horiz-adv-x="298" 
d="M21 147q93 124 156 215h54v-220h55v-49h-55v-93h-54v93h-156v54zM177 142v138q-7 -10 -43.5 -65.5t-49.5 -72.5h93z" />
    <glyph glyph-name="five.denom" horiz-adv-x="284" 
d="M242 312h-129q-1 -18 -3.5 -50.5t-3.5 -42.5q19 8 46 8q43 0 75 -32t32 -78q0 -52 -35 -86.5t-87 -34.5q-36 0 -67.5 17.5t-47.5 47.5l49 25q17 -42 65 -42q30 0 48 20t18 50q0 29 -18.5 47.5t-46.5 18.5q-34 0 -56 -25l-35 28q10 96 13 179h183v-50z" />
    <glyph glyph-name="six.denom" horiz-adv-x="295" 
d="M205 382l22 -44q-56 -27 -90 -57.5t-49 -75.5q30 28 73 28q48 0 79 -33t31 -79q0 -52 -32.5 -88.5t-85.5 -36.5q-60 0 -94.5 44t-34.5 102q0 79 51 142t130 98zM80 144q0 -42 17.5 -71t53.5 -29q29 0 46.5 21t17.5 51q0 31 -17.5 49.5t-46.5 18.5q-49 0 -71 -40z" />
    <glyph glyph-name="seven.denom" horiz-adv-x="246" 
d="M234 324q-103 -223 -148 -334l-50 24q49 112 140 298h-170v50h228v-38z" />
    <glyph glyph-name="eight.denom" horiz-adv-x="313" 
d="M278 100q0 -42 -33 -73t-88 -31q-56 0 -89 31t-33 73q0 57 54 90q-45 27 -45 77q0 41 32 70t81 29q48 0 80 -29t32 -70q0 -50 -45 -77q54 -33 54 -90zM100 264q0 -22 16.5 -37.5t40.5 -15.5q23 0 39.5 15.5t16.5 37.5q0 23 -16 38t-40 15q-25 0 -41 -15t-16 -38zM92 104
q0 -25 18.5 -42t46.5 -17t46 17t18 42q0 26 -18 43.5t-46 17.5t-46.5 -17.5t-18.5 -43.5z" />
    <glyph glyph-name="nine.denom" horiz-adv-x="295" 
d="M90 -20l-22 44q56 27 90 57.5t49 75.5q-30 -28 -73 -28q-48 0 -79 33t-31 79q0 52 32.5 88.5t85.5 36.5q60 0 94.5 -44t34.5 -102q0 -79 -51 -142t-130 -98zM215 218q0 42 -17.5 71t-53.5 29q-29 0 -46.5 -21t-17.5 -51q0 -31 17.5 -49.5t46.5 -18.5q49 0 71 40z" />
    <glyph glyph-name="onefifth" horiz-adv-x="751" 
d="M570 709l46 -34l-497 -684l-46 34zM215 338h-54v293q-30 -13 -51 -21v50q58 30 75 40h30v-362zM654 312h-129q-1 -18 -3.5 -50.5t-3.5 -42.5q19 8 46 8q43 0 75 -32t32 -78q0 -52 -35 -86.5t-87 -34.5q-36 0 -67.5 17.5t-47.5 47.5l49 25q17 -42 65 -42q30 0 48 20t18 50
q0 29 -18.5 47.5t-46.5 18.5q-34 0 -56 -25l-35 28q10 96 13 179h183v-50z" />
    <glyph glyph-name="twofifths" horiz-adv-x="833" 
d="M651 709l46 -34l-497 -684l-46 34zM317 338h-228v46q75 82 125 156q28 41 28 68q0 21 -15.5 33.5t-38.5 12.5t-37.5 -15.5t-14.5 -41.5l-56 11q3 40 36.5 68t75.5 28t74.5 -27t32.5 -71q0 -40 -39 -100q-35 -52 -94 -118h151v-50zM735 312h-129q-1 -18 -3.5 -50.5
t-3.5 -42.5q19 8 46 8q43 0 75 -32t32 -78q0 -52 -35 -86.5t-87 -34.5q-36 0 -67.5 17.5t-47.5 47.5l49 25q17 -42 65 -42q30 0 48 20t18 50q0 29 -18.5 47.5t-46.5 18.5q-34 0 -56 -25l-35 28q10 96 13 179h183v-50z" />
    <glyph glyph-name="threefifths" horiz-adv-x="812" 
d="M631 709l46 -34l-497 -684l-46 34zM149 495l1 53q32 0 48 4q46 15 46 55q0 21 -15.5 34.5t-41.5 13.5q-42 0 -53 -41l-50 20q12 32 40 51t63 19q48 0 80.5 -27t32.5 -70q0 -23 -12.5 -43.5t-30.5 -31.5q27 -10 43.5 -34t16.5 -55q0 -49 -34.5 -79t-87.5 -30
q-36 0 -67.5 17.5t-47.5 49.5l48 24q21 -42 69 -42q27 0 45 15t18 42t-21 43t-54 16q-22 0 -36 -4zM715 312h-129q-1 -18 -3.5 -50.5t-3.5 -42.5q19 8 46 8q43 0 75 -32t32 -78q0 -52 -35 -86.5t-87 -34.5q-36 0 -67.5 17.5t-47.5 47.5l49 25q17 -42 65 -42q30 0 48 20
t18 50q0 29 -18.5 47.5t-46.5 18.5q-34 0 -56 -25l-35 28q10 96 13 179h183v-50z" />
    <glyph glyph-name="fourfifths" horiz-adv-x="865" 
d="M683 709l46 -34l-497 -684l-46 34zM80 485q93 124 156 215h54v-220h55v-49h-55v-93h-54v93h-156v54zM236 480v138q-7 -10 -43.5 -65.5t-49.5 -72.5h93zM767 312h-129q-1 -18 -3.5 -50.5t-3.5 -42.5q19 8 46 8q43 0 75 -32t32 -78q0 -52 -35 -86.5t-87 -34.5
q-36 0 -67.5 17.5t-47.5 47.5l49 25q17 -42 65 -42q30 0 48 20t18 50q0 29 -18.5 47.5t-46.5 18.5q-34 0 -56 -25l-35 28q10 96 13 179h183v-50z" />
    <glyph glyph-name="onesixth" horiz-adv-x="708" 
d="M570 709l46 -34l-497 -684l-46 34zM215 338h-54v293q-30 -13 -51 -21v50q58 30 75 40h30v-362zM562 382l22 -44q-56 -27 -90 -57.5t-49 -75.5q30 28 73 28q48 0 79 -33t31 -79q0 -52 -32.5 -88.5t-85.5 -36.5q-60 0 -94.5 44t-34.5 102q0 79 51 142t130 98zM437 144
q0 -42 17.5 -71t53.5 -29q29 0 46.5 21t17.5 51q0 31 -17.5 49.5t-46.5 18.5q-49 0 -71 -40z" />
    <glyph glyph-name="fivesixths" horiz-adv-x="754" 
d="M616 709l46 -34l-497 -684l-46 34zM299 650h-129q-1 -18 -3.5 -50.5t-3.5 -42.5q19 8 46 8q43 0 75 -32t32 -78q0 -52 -35 -86.5t-87 -34.5q-36 0 -67.5 17.5t-47.5 47.5l49 25q17 -42 65 -42q30 0 48 20t18 50q0 29 -18.5 47.5t-46.5 18.5q-34 0 -56 -25l-35 28
q10 96 13 179h183v-50zM608 382l22 -44q-56 -27 -90 -57.5t-49 -75.5q30 28 73 28q48 0 79 -33t31 -79q0 -52 -32.5 -88.5t-85.5 -36.5q-60 0 -94.5 44t-34.5 102q0 79 51 142t130 98zM483 144q0 -42 17.5 -71t53.5 -29q29 0 46.5 21t17.5 51q0 31 -17.5 49.5t-46.5 18.5
q-49 0 -71 -40z" />
    <glyph glyph-name="oneseventh" horiz-adv-x="763" 
d="M570 709l46 -34l-497 -684l-46 34zM215 338h-54v293q-30 -13 -51 -21v50q58 30 75 40h30v-362zM683 324q-103 -223 -148 -334l-50 24q49 112 140 298h-170v50h228v-38z" />
    <glyph glyph-name="twosevenths" horiz-adv-x="845" 
d="M651 709l46 -34l-497 -684l-46 34zM317 338h-228v46q75 82 125 156q28 41 28 68q0 21 -15.5 33.5t-38.5 12.5t-37.5 -15.5t-14.5 -41.5l-56 11q3 40 36.5 68t75.5 28t74.5 -27t32.5 -71q0 -40 -39 -100q-35 -52 -94 -118h151v-50zM765 324q-103 -223 -148 -334l-50 24
q49 112 140 298h-170v50h228v-38z" />
    <glyph glyph-name="threesevenths" horiz-adv-x="824" 
d="M631 709l46 -34l-497 -684l-46 34zM149 495l1 53q32 0 48 4q46 15 46 55q0 21 -15.5 34.5t-41.5 13.5q-42 0 -53 -41l-50 20q12 32 40 51t63 19q48 0 80.5 -27t32.5 -70q0 -23 -12.5 -43.5t-30.5 -31.5q27 -10 43.5 -34t16.5 -55q0 -49 -34.5 -79t-87.5 -30
q-36 0 -67.5 17.5t-47.5 49.5l48 24q21 -42 69 -42q27 0 45 15t18 42t-21 43t-54 16q-22 0 -36 -4zM744 324q-103 -223 -148 -334l-50 24q49 112 140 298h-170v50h228v-38z" />
    <glyph glyph-name="foursevenths" horiz-adv-x="877" 
d="M683 709l46 -34l-497 -684l-46 34zM80 485q93 124 156 215h54v-220h55v-49h-55v-93h-54v93h-156v54zM236 480v138q-7 -10 -43.5 -65.5t-49.5 -72.5h93zM796 324q-103 -223 -148 -334l-50 24q49 112 140 298h-170v50h228v-38z" />
    <glyph glyph-name="fivesevenths" horiz-adv-x="810" 
d="M616 709l46 -34l-497 -684l-46 34zM299 650h-129q-1 -18 -3.5 -50.5t-3.5 -42.5q19 8 46 8q43 0 75 -32t32 -78q0 -52 -35 -86.5t-87 -34.5q-36 0 -67.5 17.5t-47.5 47.5l49 25q17 -42 65 -42q30 0 48 20t18 50q0 29 -18.5 47.5t-46.5 18.5q-34 0 -56 -25l-35 28
q10 96 13 179h183v-50zM730 324q-103 -223 -148 -334l-50 24q49 112 140 298h-170v50h228v-38z" />
    <glyph glyph-name="sixsevenths" horiz-adv-x="825" 
d="M632 709l46 -34l-497 -684l-46 34zM261 720l22 -44q-56 -27 -90 -57.5t-49 -75.5q30 28 73 28q48 0 79 -33t31 -79q0 -52 -32.5 -88.5t-85.5 -36.5q-60 0 -94.5 44t-34.5 102q0 79 51 142t130 98zM136 482q0 -42 17.5 -71t53.5 -29q29 0 46.5 21t17.5 51q0 31 -17.5 49.5
t-46.5 18.5q-49 0 -71 -40zM745 324q-103 -223 -148 -334l-50 24q49 112 140 298h-170v50h228v-38z" />
    <glyph glyph-name="oneninth" horiz-adv-x="774" 
d="M570 709l46 -34l-497 -684l-46 34zM215 338h-54v293q-30 -13 -51 -21v50q58 30 75 40h30v-362zM513 -20l-22 44q56 27 90 57.5t49 75.5q-30 -28 -73 -28q-48 0 -79 33t-31 79q0 52 32.5 88.5t85.5 36.5q60 0 94.5 -44t34.5 -102q0 -79 -51 -142t-130 -98zM638 218
q0 42 -17.5 71t-53.5 29q-29 0 -46.5 -21t-17.5 -51q0 -31 17.5 -49.5t46.5 -18.5q49 0 71 40z" />
    <glyph glyph-name="twoninths" horiz-adv-x="856" 
d="M651 709l46 -34l-497 -684l-46 34zM317 338h-228v46q75 82 125 156q28 41 28 68q0 21 -15.5 33.5t-38.5 12.5t-37.5 -15.5t-14.5 -41.5l-56 11q3 40 36.5 68t75.5 28t74.5 -27t32.5 -71q0 -40 -39 -100q-35 -52 -94 -118h151v-50zM595 -20l-22 44q56 27 90 57.5t49 75.5
q-30 -28 -73 -28q-48 0 -79 33t-31 79q0 52 32.5 88.5t85.5 36.5q60 0 94.5 -44t34.5 -102q0 -79 -51 -142t-130 -98zM720 218q0 42 -17.5 71t-53.5 29q-29 0 -46.5 -21t-17.5 -51q0 -31 17.5 -49.5t46.5 -18.5q49 0 71 40z" />
    <glyph glyph-name="fourninths" horiz-adv-x="888" 
d="M683 709l46 -34l-497 -684l-46 34zM80 485q93 124 156 215h54v-220h55v-49h-55v-93h-54v93h-156v54zM236 480v138q-7 -10 -43.5 -65.5t-49.5 -72.5h93zM627 -20l-22 44q56 27 90 57.5t49 75.5q-30 -28 -73 -28q-48 0 -79 33t-31 79q0 52 32.5 88.5t85.5 36.5
q60 0 94.5 -44t34.5 -102q0 -79 -51 -142t-130 -98zM752 218q0 42 -17.5 71t-53.5 29q-29 0 -46.5 -21t-17.5 -51q0 -31 17.5 -49.5t46.5 -18.5q49 0 71 40z" />
    <glyph glyph-name="fiveninths" horiz-adv-x="821" 
d="M616 709l46 -34l-497 -684l-46 34zM299 650h-129q-1 -18 -3.5 -50.5t-3.5 -42.5q19 8 46 8q43 0 75 -32t32 -78q0 -52 -35 -86.5t-87 -34.5q-36 0 -67.5 17.5t-47.5 47.5l49 25q17 -42 65 -42q30 0 48 20t18 50q0 29 -18.5 47.5t-46.5 18.5q-34 0 -56 -25l-35 28
q10 96 13 179h183v-50zM560 -20l-22 44q56 27 90 57.5t49 75.5q-30 -28 -73 -28q-48 0 -79 33t-31 79q0 52 32.5 88.5t85.5 36.5q60 0 94.5 -44t34.5 -102q0 -79 -51 -142t-130 -98zM685 218q0 42 -17.5 71t-53.5 29q-29 0 -46.5 -21t-17.5 -51q0 -31 17.5 -49.5t46.5 -18.5
q49 0 71 40z" />
    <glyph glyph-name="sevenninths" horiz-adv-x="772" 
d="M568 709l46 -34l-497 -684l-46 34zM323 662q-103 -223 -148 -334l-50 24q49 112 140 298h-170v50h228v-38zM511 -20l-22 44q56 27 90 57.5t49 75.5q-30 -28 -73 -28q-48 0 -79 33t-31 79q0 52 32.5 88.5t85.5 36.5q60 0 94.5 -44t34.5 -102q0 -79 -51 -142t-130 -98z
M636 218q0 42 -17.5 71t-53.5 29q-29 0 -46.5 -21t-17.5 -51q0 -31 17.5 -49.5t46.5 -18.5q49 0 71 40z" />
    <glyph glyph-name="eightninths" horiz-adv-x="846" 
d="M642 709l46 -34l-497 -684l-46 34zM322 438q0 -42 -33 -73t-88 -31q-56 0 -89 31t-33 73q0 57 54 90q-45 27 -45 77q0 41 32 70t81 29q48 0 80 -29t32 -70q0 -50 -45 -77q54 -33 54 -90zM144 602q0 -22 16.5 -37.5t40.5 -15.5q23 0 39.5 15.5t16.5 37.5q0 23 -16 38
t-40 15q-25 0 -41 -15t-16 -38zM136 442q0 -25 18.5 -42t46.5 -17t46 17t18 42q0 26 -18 43.5t-46 17.5t-46.5 -17.5t-18.5 -43.5zM585 -20l-22 44q56 27 90 57.5t49 75.5q-30 -28 -73 -28q-48 0 -79 33t-31 79q0 52 32.5 88.5t85.5 36.5q60 0 94.5 -44t34.5 -102
q0 -79 -51 -142t-130 -98zM710 218q0 42 -17.5 71t-53.5 29q-29 0 -46.5 -21t-17.5 -51q0 -31 17.5 -49.5t46.5 -18.5q49 0 71 40z" />
    <glyph glyph-name="commaaccent" horiz-adv-x="360" 
d="M209 -59l-46 -166h-56l34 166h68z" />
    <glyph glyph-name="revcommaaccent" horiz-adv-x="360" 
d="M163 565l48 171h56l-36 -171h-68z" />
    <glyph glyph-name="tilde.cap" horiz-adv-x="360" 
d="M290 865l51 6q3 -12 3 -23q0 -38 -24 -64t-64 -26q-26 0 -49 11t-37 23.5t-31 23.5t-33 11q-35 0 -37 -32q0 -8 1 -12l-51 -6q-3 12 -3 23q0 38 24 64t64 26q31 0 58 -17t49.5 -34.5t42.5 -17.5q35 0 37 32q0 8 -1 12z" />
    <glyph glyph-name="ring.cap" horiz-adv-x="360" 
d="M86 816q0 39 27.5 66.5t66.5 27.5t66.5 -27.5t27.5 -66.5t-27.5 -66.5t-66.5 -27.5t-66.5 27.5t-27.5 66.5zM130 816q0 -20 15 -35t35 -15t35 15t15 35t-15 35t-35 15t-35 -15t-15 -35z" />
    <glyph glyph-name="circumflex.cap" horiz-adv-x="360" 
d="M145 899h71l104 -124l-40 -33l-100 105l-102 -105l-41 35z" />
    <glyph glyph-name="acute.cap" horiz-adv-x="360" 
d="M305 856l-165 -116l-34 43l154 129z" />
    <glyph glyph-name="grave.cap" horiz-adv-x="360" 
d="M229 740l-165 116l45 56l154 -129z" />
    <glyph glyph-name="dieresis.cap" horiz-adv-x="360" 
d="M86 765h-80v107h80v-107zM354 765h-80v107h80v-107z" />
    <glyph glyph-name="caron.cap" horiz-adv-x="360" 
d="M214 753h-72l-105 122l42 35l100 -103l102 103l41 -35z" />
    <glyph glyph-name="macron.cap" horiz-adv-x="360" 
d="M336 775h-313v59h313v-59z" />
    <glyph glyph-name="dotaccent.cap" horiz-adv-x="360" 
d="M220 765h-80v107h80v-107z" />
    <glyph glyph-name="cedilla.cap" horiz-adv-x="360" 
d="M144 5l50 -10l-27 -62l3 -1q16 16 48 16q39 0 61.5 -26t22.5 -63q0 -40 -31 -69.5t-75 -29.5q-67 0 -98 54l52 26q11 -32 49 -32q20 0 32.5 14t12.5 33q0 21 -12 36t-33 15q-29 0 -43 -26l-57 31z" />
    <glyph glyph-name="hungarumlaut.cap" horiz-adv-x="360" 
d="M413 850l-156 -110l-34 43l146 122zM231 856l-165 -116l-34 43l154 129z" />
    <glyph glyph-name="commaaccent.cap" horiz-adv-x="360" 
d="M209 -59l-46 -166h-56l34 166h68z" />
    <glyph glyph-name="breve.cap" horiz-adv-x="360" 
d="M180 810q34 0 57 20t23 54v5h55v-6q0 -54 -39 -91t-96 -37q-60 0 -97.5 36.5t-37.5 91.5v6h57v-5q0 -34 22 -54t56 -20z" />
    <glyph glyph-name="caron.alt" horiz-adv-x="360" 
d="M166 549h-57l41 201h70z" />
    <glyph glyph-name="ogonek.cap" horiz-adv-x="360" 
d="M160 11l61 -6v-5q-104 -38 -104 -109q0 -59 51 -59q24 0 48 19l30 -40q-34 -31 -89 -31q-46 0 -76 28t-30 71q0 90 109 132z" />
    <glyph glyph-name="square" horiz-adv-x="388" 
d="M60 155v268h268v-268h-268z" />
    <glyph glyph-name="square.open" horiz-adv-x="388" 
d="M60 155v268h268v-268h-268zM138 345v-112h112v112h-112z" />
    <glyph glyph-name="circle.open" horiz-adv-x="366" 
d="M35 289q0 61 43.5 104.5t104.5 43.5t104.5 -43.5t43.5 -104.5t-43.5 -104.5t-104.5 -43.5t-104.5 43.5t-43.5 104.5zM121 289q0 -25 18.5 -43.5t43.5 -18.5t43.5 18.5t18.5 43.5t-18.5 43.5t-43.5 18.5t-43.5 -18.5t-18.5 -43.5z" />
    <glyph glyph-name="doublecircle" horiz-adv-x="366" 
d="M39 283q0 59 42.5 101.5t101.5 42.5t101.5 -42.5t42.5 -101.5t-42.5 -101.5t-101.5 -42.5t-101.5 42.5t-42.5 101.5zM128 283q0 23 16 39t39 16t39 -16t16 -39t-16 -39t-39 -16t-39 16t-16 39zM75 283q0 -44 32 -76t76 -32t76 32t32 76t-32 76t-76 32t-76 -32t-32 -76z
" />
    <glyph glyph-name="triangle.left" horiz-adv-x="398" 
d="M338 111l-308 175l308 173v-348z" />
    <glyph glyph-name="triangleWhiteLeft" horiz-adv-x="462" 
d="M402 77l-372 208l372 208v-416zM349 403l-214 -118l214 -119v237z" />
    <glyph glyph-name="triangleWhiteRight" horiz-adv-x="462" 
d="M432 285l-372 -208v416zM327 285l-214 118v-237z" />
    <glyph glyph-name="raute" horiz-adv-x="356" 
d="M178 512l148 -236l-148 -236l-148 236z" />
    <glyph glyph-name="arrow.right" horiz-adv-x="1000" 
d="M40 327v68h812l-287 281l48 49l367 -364l-367 -363l-48 48l286 281h-811z" />
    <glyph glyph-name="arrow.left" horiz-adv-x="1000" 
d="M952 395v-68h-811l286 -281l-48 -48l-367 363l367 364l48 -49l-287 -281h812z" />
    <glyph glyph-name="arrow.up" horiz-adv-x="900" 
d="M485 -99h-68v812l-281 -287l-49 48l365 367l362 -367l-48 -48l-281 286v-811z" />
    <glyph glyph-name="arrow.down" horiz-adv-x="900" 
d="M416 821h68v-812l281 287l49 -48l-365 -367l-362 367l48 48l281 -286v811z" />
    <glyph glyph-name="arrow.leftup" horiz-adv-x="1000" 
d="M851 52l-48 -48l-574 573l4 -401h-68l-3 516l517 -2l-1 -68l-401 4z" />
    <glyph glyph-name="arrow.rightup" horiz-adv-x="1000" 
d="M213 4l-48 48l574 574l-401 -4l-1 68l517 2l-3 -516h-68l4 401z" />
    <glyph glyph-name="arrowleft.down" horiz-adv-x="1000" 
d="M803 688l48 -48l-574 -574l401 4l1 -68l-517 -2l3 516h68l-4 -401z" />
    <glyph glyph-name="arrowright.down" horiz-adv-x="1000" 
d="M165 640l48 48l574 -573l-4 401h68l3 -516l-517 2l1 68l401 -4z" />
    <glyph glyph-name="arrowright.alt" horiz-adv-x="441" 
d="M361 284l-243 -180l-38 56l177 124l-177 124l38 56z" />
    <glyph glyph-name="arrowleft.alt" horiz-adv-x="441" 
d="M323 104l-243 180l243 180l38 -56l-177 -124l177 -124z" />
    <glyph glyph-name="arrowup.alt" horiz-adv-x="520" 
d="M260 475l180 -243l-56 -38l-124 177l-124 -177l-56 38z" />
    <glyph glyph-name="arrowdown.alt" horiz-adv-x="520" 
d="M260 93l-180 243l56 38l124 -177l124 177l56 -38z" />
    <glyph glyph-name="arrowleftup.alt" horiz-adv-x="459" 
d="M80 434l299 -45l-13 -66l-213 37l38 -213l-67 -12z" />
    <glyph glyph-name="arrowrightup.alt" horiz-adv-x="459" 
d="M80 389l299 45l-44 -299l-67 12l38 213l-213 -37z" />
    <glyph glyph-name="arrowleftdown.alt" horiz-adv-x="459" 
d="M379 180l-299 -45l44 299l67 -12l-38 -213l213 37z" />
    <glyph glyph-name="arrowrightdown.alt" horiz-adv-x="459" 
d="M379 135l-299 45l13 66l213 -37l-38 213l67 12z" />
    <glyph glyph-name="arrowlong.left" horiz-adv-x="1192" 
d="M1122 291v-54h-950l229 -225l-38 -40l-293 292l293 291l38 -39l-229 -225h950z" />
    <glyph glyph-name="arrowlong.right" horiz-adv-x="1192" 
d="M70 237v54h950l-229 225l38 39l293 -291l-293 -292l-38 40l229 225h-950z" />
    <glyph glyph-name="arrowlong.up" horiz-adv-x="723" 
d="M388 -219h-54v950l-225 -229l-39 38l291 293l292 -293l-40 -38l-225 229v-950z" />
    <glyph glyph-name="arrowlong.down" horiz-adv-x="723" 
d="M335 823h54v-950l225 229l39 -38l-291 -293l-292 293l40 38l225 -229v950z" />
    <glyph glyph-name="arrowlong.leftup" horiz-adv-x="902" 
d="M832 -47l-37 -38l-672 672l3 -321l-54 -1l-2 412l413 1l-1 -55l-321 2z" />
    <glyph glyph-name="arrowlong.leftdown" horiz-adv-x="902" 
d="M795 677l37 -38l-671 -672l321 2l1 -55l-413 1l2 412l54 -1l-3 -321z" />
    <glyph glyph-name="arrowlong.rightup" horiz-adv-x="902" 
d="M107 -85l-37 38l671 672l-321 -2l-1 55l413 -1l-2 -412l-54 1l3 321z" />
    <glyph glyph-name="arrowlong.rightdown" horiz-adv-x="902" 
d="M70 639l37 38l672 -672l-3 321l54 1l2 -412l-413 -1l1 55l321 -2z" />
    <glyph glyph-name="ornm1" horiz-adv-x="666" 
d="M240 390q0 -19 15 -34h-201q-14 0 -24 10t-10 24t10 24t24 10h200q-14 -14 -14 -34zM426 122h-93q13 13 13 32q0 25 -22 39q22 14 22 39t-22 39q22 14 22 39q0 19 -14 33h63v13h-107q-14 0 -24 10t-10 24t10 24t24 10h149q20 0 35.5 -30t39.5 -30h114v-197h-114
q-23 0 -41 -23t-45 -22zM332 154q0 -14 -9 -23t-23 -9h-81q-13 0 -22.5 9t-9.5 23t9.5 23t22.5 9h81q14 0 23 -9t9 -23zM332 232q0 -14 -9 -23t-23 -9h-81q-13 0 -22.5 9t-9.5 23t9.5 23t22.5 9h81q14 0 23 -9t9 -23zM332 310q0 -14 -9 -23t-23 -9h-81q-13 0 -22.5 9
t-9.5 23t9.5 23t22.5 9h81q14 0 23 -9t9 -23z" />
    <glyph glyph-name="ornm2" horiz-adv-x="666" 
d="M426 390q0 20 -14 34h200q14 0 24 -10t10 -24t-10 -24t-24 -10h-201q15 15 15 34zM240 122q-27 -1 -45 22t-41 23h-114v197h114q24 0 39.5 30t35.5 30h149q14 0 24 -10t10 -24t-10 -24t-24 -10h-107v-13h63q-14 -14 -14 -33q0 -25 22 -39q-22 -14 -22 -39t22 -39
q-22 -14 -22 -39q0 -19 13 -32h-93zM334 154q0 14 9 23t23 9h81q13 0 22.5 -9t9.5 -23t-9.5 -23t-22.5 -9h-81q-14 0 -23 9t-9 23zM334 232q0 14 9 23t23 9h81q13 0 22.5 -9t9.5 -23t-9.5 -23t-22.5 -9h-81q-14 0 -23 9t-9 23zM334 310q0 14 9 23t23 9h81q13 0 22.5 -9
t9.5 -23t-9.5 -23t-22.5 -9h-81q-14 0 -23 9t-9 23z" />
    <glyph glyph-name="ornm3" horiz-adv-x="1100" 
d="M519 601h62v-157h-62v157zM581 -91h-62v157h62v-157zM896 286v-62h-157v62h157zM204 224v62h157v-62h-157zM424 743l60 12l30 -154l-60 -12zM676 -233l-60 -12l-30 154l60 12zM62 129l-12 60l154 30l12 -60zM1038 381l12 -60l-154 -30l-12 60zM283 478l44 44l111 -111
l-44 -44zM817 32l-44 -44l-111 111l44 44zM773 522l44 -44l-111 -111l-44 44zM327 -12l-44 44l111 111l44 -44zM115 511l35 51l130 -87l-35 -52zM985 -1l-35 -51l-130 87l35 52zM294 -180l-51 35l87 130l52 -35zM806 690l51 -35l-87 -130l-52 35zM392 564l57 23l59 -145
l-58 -23zM708 -54l-57 -23l-59 145l58 23zM859 413l23 -57l-145 -59l-23 58zM241 97l-23 57l145 59l23 -58zM250 660l52 34l86 -132l-52 -34zM850 -150l-52 -34l-86 132l52 34zM145 -45l-34 52l132 86l34 -52zM955 555l34 -52l-132 -86l-34 52zM219 362l24 57l145 -61
l-25 -58zM881 148l-24 -57l-145 61l25 58zM657 586l57 -24l-61 -145l-58 25zM443 -76l-57 24l61 145l58 -25zM51 329l13 61l153 -33l-12 -60zM1049 181l-13 -61l-153 33l12 60zM476 -244l-61 13l33 153l60 -12zM624 754l61 -13l-33 -153l-60 12z" />
    <glyph glyph-name="ornm4" horiz-adv-x="1185" 
d="M550 -247q0 15 10.5 25.5t25.5 10.5t25.5 -10.5t10.5 -25.5t-10.5 -25.5t-25.5 -10.5t-25.5 10.5t-10.5 25.5zM550 -118q0 15 10.5 25.5t25.5 10.5t25.5 -10.5t10.5 -25.5t-10.5 -25.5t-25.5 -10.5t-25.5 10.5t-10.5 25.5zM550 253q0 15 10.5 25.5t25.5 10.5t25.5 -10.5
t10.5 -25.5t-10.5 -25.5t-25.5 -10.5t-25.5 10.5t-10.5 25.5zM550 624q0 15 10.5 25.5t25.5 10.5t25.5 -10.5t10.5 -25.5t-10.5 -25.5t-25.5 -10.5t-25.5 10.5t-10.5 25.5zM550 753q0 15 10.5 25.5t25.5 10.5t25.5 -10.5t10.5 -25.5t-10.5 -25.5t-25.5 -10.5t-25.5 10.5
t-10.5 25.5zM322 253q0 109 77 186.5t187 77.5t187 -77.5t77 -186.5t-77 -186.5t-187 -77.5t-187 77.5t-77 186.5zM364 253q0 -92 65 -157t157 -65t157 65t65 157t-65 157t-157 65t-157 -65t-65 -157zM436 253q0 62 44 106t106 44t106 -44t44 -106t-44 -106t-106 -44
t-106 44t-44 106zM478 253q0 -45 31.5 -76.5t76.5 -31.5t76.5 31.5t31.5 76.5t-31.5 76.5t-76.5 31.5t-76.5 -31.5t-31.5 -76.5zM50 253q0 15 10.5 25.5t25.5 10.5t25.5 -10.5t10.5 -25.5t-10.5 -25.5t-25.5 -10.5t-25.5 10.5t-10.5 25.5zM179 253q0 15 10.5 25.5t25.5 10.5
t25.5 -10.5t10.5 -25.5t-10.5 -25.5t-25.5 -10.5t-25.5 10.5t-10.5 25.5zM934 253q0 15 10.5 25.5t25.5 10.5t25.5 -10.5t10.5 -25.5t-10.5 -25.5t-25.5 -10.5t-25.5 10.5t-10.5 25.5zM1063 253q0 15 10.5 25.5t25.5 10.5t25.5 -10.5t10.5 -25.5t-10.5 -25.5t-25.5 -10.5
t-25.5 10.5t-10.5 25.5zM300 686q0 15 10.5 25.5t25.5 10.5t25.5 -10.5t10.5 -25.5t-10.5 -25.5t-25.5 -10.5t-25.5 10.5t-10.5 25.5zM364 574q0 15 10.5 25.5t25.5 10.5t25.5 -10.5t10.5 -25.5t-10.5 -25.5t-25.5 -10.5t-25.5 10.5t-10.5 25.5zM742 -80q0 15 10.5 25.5
t25.5 10.5t25.5 -10.5t10.5 -25.5t-10.5 -25.5t-25.5 -10.5t-25.5 10.5t-10.5 25.5zM806 -192q0 15 10.5 25.5t25.5 10.5t25.5 -10.5t10.5 -25.5t-10.5 -25.5t-25.5 -10.5t-25.5 10.5t-10.5 25.5zM229 68q0 15 10.5 25.5t25.5 10.5t25.5 -10.5t10.5 -25.5t-10.5 -25.5
t-25.5 -10.5t-25.5 10.5t-10.5 25.5zM117 3q0 15 10.5 25.5t25.5 10.5t25.5 -10.5t10.5 -25.5t-10.5 -25.5t-25.5 -10.5t-25.5 10.5t-10.5 25.5zM983 503q0 15 10.5 25.5t25.5 10.5t25.5 -10.5t10.5 -25.5t-10.5 -25.5t-25.5 -10.5t-25.5 10.5t-10.5 25.5zM871 438
q0 15 10.5 25.5t25.5 10.5t25.5 -10.5t10.5 -25.5t-10.5 -25.5t-25.5 -10.5t-25.5 10.5t-10.5 25.5zM872 686q0 -15 -10.5 -25.5t-25.5 -10.5t-25.5 10.5t-10.5 25.5t10.5 25.5t25.5 10.5t25.5 -10.5t10.5 -25.5zM808 574q0 -15 -10.5 -25.5t-25.5 -10.5t-25.5 10.5
t-10.5 25.5t10.5 25.5t25.5 10.5t25.5 -10.5t10.5 -25.5zM954 60q0 -15 -10.5 -25.5t-25.5 -10.5t-25.5 10.5t-10.5 25.5t10.5 25.5t25.5 10.5t25.5 -10.5t10.5 -25.5zM1066 -5q0 -15 -10.5 -25.5t-25.5 -10.5t-25.5 10.5t-10.5 25.5t10.5 25.5t25.5 10.5t25.5 -10.5
t10.5 -25.5zM436 -68q0 -15 -10.5 -25.5t-25.5 -10.5t-25.5 10.5t-10.5 25.5t10.5 25.5t25.5 10.5t25.5 -10.5t10.5 -25.5zM372 -180q0 -15 -10.5 -25.5t-25.5 -10.5t-25.5 10.5t-10.5 25.5t10.5 25.5t25.5 10.5t25.5 -10.5t10.5 -25.5zM189 503q0 -15 -10.5 -25.5
t-25.5 -10.5t-25.5 10.5t-10.5 25.5t10.5 25.5t25.5 10.5t25.5 -10.5t10.5 -25.5zM301 438q0 -15 -10.5 -25.5t-25.5 -10.5t-25.5 10.5t-10.5 25.5t10.5 25.5t25.5 10.5t25.5 -10.5t10.5 -25.5z" />
    <glyph glyph-name="ornm5" horiz-adv-x="1060" 
d="M50 86l227 92q-7 22 -10 50h-123v50h123q3 26 11 54l-226 97l20 45l226 -95q13 24 28 42l-87 87l36 36l87 -87q20 17 46 30l-91 228l46 18l92 -227q24 8 50 9v124h50v-124q33 -3 54 -11l97 227l45 -20l-95 -227q22 -12 42 -27l87 87l36 -36l-87 -87q19 -24 30 -47l228 92
l18 -46l-227 -92q7 -24 9 -50h124v-50h-124q-3 -32 -11 -55l227 -96l-20 -45l-227 94q-13 -23 -27 -41l87 -87l-36 -36l-87 87q-23 -18 -47 -31l92 -227l-46 -18l-92 227q-24 -7 -50 -9v-124h-50v124q-31 3 -55 10l-96 -226l-45 20l94 226q-24 14 -41 28l-87 -87l-36 36
l87 87q-15 17 -31 46l-227 -91zM494 253q0 15 10.5 25.5t25.5 10.5t25.5 -10.5t10.5 -25.5t-10.5 -25.5t-25.5 -10.5t-25.5 10.5t-10.5 25.5zM308 253q0 -92 65 -157t157 -65t157 65t65 157t-65 157t-157 65t-157 -65t-65 -157zM380 253q0 62 44 106t106 44t106 -44t44 -106
t-44 -106t-106 -44t-106 44t-44 106zM422 253q0 -45 31.5 -76.5t76.5 -31.5t76.5 31.5t31.5 76.5t-31.5 76.5t-76.5 31.5t-76.5 -31.5t-31.5 -76.5z" />
    <glyph glyph-name="ornm6" horiz-adv-x="1116" 
d="M78 86l227 92q-7 22 -10 50h-245v50h245q3 26 11 54l-226 97l20 45l226 -95q13 24 28 42l-173 174l35 35l174 -173q20 17 46 30l-91 228l46 18l92 -227q24 8 50 9v246h50v-246q33 -3 54 -11l97 227l45 -20l-95 -227q22 -12 42 -27l174 173l35 -35l-173 -174
q19 -24 30 -47l228 92l18 -46l-227 -92q7 -24 9 -50h246v-50h-246q-3 -32 -11 -55l227 -96l-20 -45l-227 94q-13 -23 -27 -41l173 -174l-35 -35l-174 173q-23 -18 -47 -31l92 -227l-46 -18l-92 227q-24 -7 -50 -9v-246h-50v246q-31 3 -55 10l-96 -226l-45 20l94 226
q-24 14 -41 28l-174 -173l-35 35l173 174q-15 17 -31 46l-227 -91zM336 253q0 -92 65 -157t157 -65t157 65t65 157t-65 157t-157 65t-157 -65t-65 -157zM408 253q0 62 44 106t106 44t106 -44t44 -106t-44 -106t-106 -44t-106 44t-44 106zM450 253q0 -45 31.5 -76.5
t76.5 -31.5t76.5 31.5t31.5 76.5t-31.5 76.5t-76.5 31.5t-76.5 -31.5t-31.5 -76.5z" />
    <glyph glyph-name="ornm7" horiz-adv-x="1084" 
d="M506 253q0 15 10.5 25.5t25.5 10.5t25.5 -10.5t10.5 -25.5t-10.5 -25.5t-25.5 -10.5t-25.5 10.5t-10.5 25.5zM278 253q0 109 77 186.5t187 77.5t187 -77.5t77 -186.5t-77 -186.5t-187 -77.5t-187 77.5t-77 186.5zM320 253q0 -92 65 -157t157 -65t157 65t65 157t-65 157
t-157 65t-157 -65t-65 -157zM392 253q0 62 44 106t106 44t106 -44t44 -106t-44 -106t-106 -44t-106 44t-44 106zM434 253q0 -45 31.5 -76.5t76.5 -31.5t76.5 31.5t31.5 76.5t-31.5 76.5t-76.5 31.5t-76.5 -31.5t-31.5 -76.5zM164 253q0 157 110.5 267.5t267.5 110.5
t267.5 -110.5t110.5 -267.5t-110.5 -267.5t-267.5 -110.5t-267.5 110.5t-110.5 267.5zM206 253q0 -139 98 -237.5t238 -98.5t238 98.5t98 237.5t-98 237.5t-238 98.5t-238 -98.5t-98 -237.5zM92 253q0 -186 132 -318t318 -132t318 132t132 318t-132 318t-318 132t-318 -132
t-132 -318zM50 253q0 134 66 247t179 179t247 66t247 -66t179 -179t66 -247t-66 -247t-179 -179t-247 -66t-247 66t-179 179t-66 247z" />
    <glyph glyph-name="ornm8" horiz-adv-x="1106" 
d="M584 442h-62v314h62v-314zM522 64h62v-314h-62v314zM364 284v-62h-314v62h314zM742 222v62h314v-62h-314zM441 409l-44 -44l-222 222l44 44zM665 97l44 44l222 -222l-44 -44zM397 141l44 -44l-222 -222l-44 44zM709 365l-44 44l222 222l44 -44zM653 417l-58 23l118 291
l57 -23zM453 89l58 -23l-118 -291l-57 23zM389 353l-23 -58l-291 118l23 57zM717 153l23 58l291 -118l-23 -57zM508 440l-58 -25l-122 289l57 25zM598 66l58 25l122 -289l-57 -25zM366 208l25 -58l-289 -122l-25 57zM740 298l-25 58l289 122l25 -57z" />
    <glyph glyph-name="ornm9" horiz-adv-x="600" 
d="M550 500v-500h-500v500h500z" />
    <glyph glyph-name="zero.alt" 
d="M275 676q109 0 169.5 -91.5t60.5 -252.5t-60.5 -252.5t-169.5 -91.5t-169.5 91.5t-60.5 252.5t60.5 252.5t169.5 91.5zM275 608q-75 0 -115 -70t-40 -206t40 -206t115 -70t115 70t40 206t-40 206t-115 70z" />
    <glyph glyph-name="one.alt" horiz-adv-x="334" 
d="M235 0h-73v573q-38 -19 -103 -45v69q80 39 129 67h47v-664z" />
    <glyph glyph-name="two.alt" horiz-adv-x="490" 
d="M56 0v74q159 170 238 289q55 81 55 142q0 45 -34 74t-81 29q-45 0 -79 -29t-38 -75l-71 15q7 68 62.5 112.5t128.5 44.5q74 0 131.5 -49.5t57.5 -124.5q0 -77 -66 -173q-102 -146 -211 -261h316v-68h-409z" />
    <glyph glyph-name="three.alt" horiz-adv-x="497" 
d="M116 384l204 211h-272v68h371v-65l-188 -194h4q96 -2 148.5 -61t52.5 -140q0 -92 -61.5 -153.5t-155.5 -61.5q-55 0 -102.5 26t-77.5 74l57 31q43 -63 123 -63q60 0 101 38t41 100q0 58 -38.5 100.5t-107.5 42.5q-38 0 -63 -17z" />
    <glyph glyph-name="four.alt" horiz-adv-x="538" 
d="M507 185h-99v-185h-73v185h-303v78q123 157 298 401h78v-416h99v-63zM335 563q-93 -138 -234 -315h234v315z" />
    <glyph glyph-name="five.alt" horiz-adv-x="497" 
d="M405 595h-245l-15 -215q42 24 104 24q77 0 132 -58t55 -145q0 -89 -62.5 -151t-158.5 -62q-56 0 -102 26.5t-74 73.5l57 31q40 -63 122 -63q58 0 100.5 41t42.5 98q0 65 -35 103t-104 38q-60 0 -101 -41l-51 30l23 338h312v-68z" />
    <glyph glyph-name="six.alt" horiz-adv-x="503" 
d="M386 190q0 59 -37 99t-99 40t-98 -40t-36 -99q0 -57 38.5 -95.5t95.5 -38.5t96.5 38.5t39.5 95.5zM44 194q0 54 35 119q19 37 104.5 172.5t132.5 202.5l55 -36q-109 -162 -163 -263q24 8 53 8q78 0 138 -60t60 -143q0 -86 -61.5 -146t-148.5 -60q-86 0 -145.5 59.5
t-59.5 146.5z" />
    <glyph glyph-name="seven.alt" horiz-adv-x="442" 
d="M427 664v-56q-150 -310 -281 -625l-68 30q42 98 95.5 213t107.5 228t67 141h-331v69h410z" />
    <glyph glyph-name="eight.alt" horiz-adv-x="526" 
d="M465 181q0 -83 -58 -138t-144 -55t-144 55t-58 138q0 114 109 166q-95 47 -95 151q0 75 54.5 126.5t133.5 51.5t133.5 -51.5t54.5 -126.5q0 -104 -95 -151q109 -52 109 -166zM392 183q0 55 -37 91t-92 36t-92 -36t-37 -91t37 -91t92 -36t92 36t37 91zM378 495
q0 48 -33 80.5t-82 32.5t-82 -32.5t-33 -80.5q0 -50 32.5 -82.5t82.5 -32.5t82.5 32.5t32.5 82.5z" />
    <glyph glyph-name="nine.alt" horiz-adv-x="503" 
d="M117 474q0 -59 37 -99t99 -40t98 40t36 99q0 57 -38.5 95.5t-95.5 38.5t-96.5 -38.5t-39.5 -95.5zM459 470q0 -54 -35 -119q-19 -37 -104.5 -172.5t-132.5 -202.5l-55 36q109 162 163 263q-24 -8 -53 -8q-78 0 -138 60t-60 143q0 86 61.5 146t148.5 60q86 0 145.5 -59.5
t59.5 -146.5z" />
    <glyph glyph-name="zero.lf" 
d="M275 676q109 0 169.5 -91.5t60.5 -252.5t-60.5 -252.5t-169.5 -91.5t-169.5 91.5t-60.5 252.5t60.5 252.5t169.5 91.5zM275 608q-75 0 -115 -70t-40 -206t40 -206t115 -70t115 70t40 206t-40 206t-115 70z" />
    <glyph glyph-name="one.lf" horiz-adv-x="339" 
d="M234 0h-73v573q-38 -19 -103 -45v69q80 39 129 67h47v-664z" />
    <glyph glyph-name="two.lf" horiz-adv-x="501" 
d="M56 0v74q159 170 238 289q55 81 55 142q0 45 -34 74t-81 29q-45 0 -79 -29t-38 -75l-71 15q7 68 62.5 112.5t128.5 44.5q74 0 131.5 -49.5t57.5 -124.5q0 -77 -66 -173q-102 -146 -211 -261h316v-68h-409z" />
    <glyph glyph-name="three.lf" horiz-adv-x="510" 
d="M142 306l2 77q65 0 104 9q41 10 70.5 39.5t29.5 71.5q0 46 -36 75.5t-86 29.5q-85 0 -120 -73l-64 28q22 53 73 83t113 30q78 0 136 -47.5t58 -126.5q0 -48 -23.5 -87t-67.5 -59q55 -16 89 -63t34 -105q0 -85 -61 -142.5t-154 -57.5q-132 0 -204 100l51 35
q47 -68 144 -68q61 0 105 34t44 93q0 60 -47.5 95t-122.5 35q-27 0 -67 -6z" />
    <glyph glyph-name="four.lf" horiz-adv-x="530" 
d="M507 185h-99v-185h-73v185h-303v78q123 157 298 401h78v-416h99v-63zM335 563q-93 -138 -234 -315h234v315z" />
    <glyph glyph-name="five.lf" horiz-adv-x="492" 
d="M65 321q6 59 23 343h331v-68h-265q-4 -122 -13 -212q42 26 107 26q87 0 148.5 -59.5t61.5 -150.5q0 -85 -62.5 -148.5t-154.5 -63.5q-59 0 -112.5 26t-86.5 75l55 39q58 -72 130 -72q63 0 109.5 41.5t46.5 104.5q0 61 -42.5 100.5t-105.5 39.5q-65 0 -115 -44z" />
    <glyph glyph-name="six.lf" horiz-adv-x="530" 
d="M393 630q-229 -107 -266 -299q69 83 166 83q84 0 138 -63t54 -152q0 -85 -60 -148t-150 -63q-103 0 -166.5 78t-63.5 182q0 151 90 271t228 176zM120 238q4 -78 41.5 -130t112.5 -52q62 0 99 42.5t37 108.5q0 58 -34.5 98.5t-92.5 40.5q-50 0 -92.5 -29.5t-70.5 -78.5z
" />
    <glyph glyph-name="seven.lf" horiz-adv-x="442" 
d="M420 664v-59q-145 -302 -278 -622l-68 30q63 148 267 583h-328v68h407z" />
    <glyph glyph-name="eight.lf" horiz-adv-x="548" 
d="M375 348q50 -23 81.5 -67t31.5 -100q0 -82 -60.5 -137.5t-153.5 -55.5t-153.5 55.5t-60.5 137.5q0 56 31.5 100t81.5 67q-93 51 -93 147q0 77 54.5 129t139.5 52t139.5 -52t54.5 -129q0 -96 -93 -147zM274 56q59 0 99 36t40 91q0 52 -40.5 89t-98.5 37t-98.5 -37
t-40.5 -89q0 -55 40 -91t99 -36zM274 377q49 0 85 35t36 82q0 49 -35.5 81.5t-85.5 32.5t-85.5 -32.5t-35.5 -81.5q0 -47 36 -82t85 -35z" />
    <glyph glyph-name="nine.lf" horiz-adv-x="530" 
d="M137 34q229 107 266 299q-69 -83 -166 -83q-84 0 -138 63t-54 152q0 85 60 148t150 63q103 0 166.5 -78t63.5 -182q0 -151 -90 -271t-228 -176zM410 426q-4 78 -41.5 130t-112.5 52q-62 0 -99 -42.5t-37 -108.5q0 -58 34.5 -98.5t92.5 -40.5q50 0 92.5 29.5t70.5 78.5z
" />
    <glyph glyph-name="dollar.lf" 
d="M41 81l51 51q75 -80 178 -80q37 0 70 11.5t59 42t26 76.5q0 24 -9.5 44t-21.5 32.5t-37.5 26t-41 19.5t-48.5 18q-36 13 -55.5 20.5t-49 24t-44.5 34t-27 45.5t-12 62q0 70 49.5 116.5t126.5 50.5v95h54v-97q83 -6 160 -60l-46 -53q-53 50 -144 50q-52 0 -91.5 -25.5
t-39.5 -76.5q0 -14 4.5 -27t10 -22t18.5 -18.5t21 -15t27.5 -13.5t28 -11.5t32.5 -11.5t32 -11q39 -14 65 -27t53.5 -34.5t41.5 -52.5t14 -72q0 -85 -53.5 -138t-137.5 -64v-96h-54v94q-114 1 -210 93z" />
    <glyph glyph-name="Euro.lf" horiz-adv-x="650" 
d="M465 224h-291q26 -79 90.5 -123t156.5 -44q93 0 163 42l37 -56q-86 -55 -197 -55q-122 0 -208.5 62.5t-116.5 173.5h-91v64h80q-2 28 -2 45q0 14 2 42h-80v64h90q29 111 113.5 174t209.5 63q108 0 179 -44l-32 -58q-57 33 -147 33q-94 0 -158.5 -44t-89.5 -124h292v-64
h-305q-2 -14 -2 -42q0 -17 2 -45h305v-64z" />
    <glyph glyph-name="cent.lf" 
d="M476 109q-59 -41 -127 -42v-85h-55v89q-94 16 -151.5 85.5t-57.5 166.5q0 96 58 166t151 86v88h55v-84q62 -3 114 -33l-25 -57q-44 28 -104 28q-77 0 -128 -56t-51 -138t49 -138t131 -56q62 0 106 32z" />
    <glyph glyph-name="sterling.lf" 
d="M476 0h-392v68h58v256h-58v68h58v65q0 64 25.5 114.5t70.5 77.5q44 27 104 27q69 0 131 -35l-31 -61q-44 28 -100 28q-46 0 -74 -23q-53 -42 -53 -160v-33h135v-68h-135v-256h261v-68z" />
    <glyph glyph-name="yen.lf" 
d="M484 247h-174v-59h174v-64h-177v-124h-69v124h-177v64h174v59h-174v64h165l-198 352h85l164 -301h2l159 301h82l-200 -352h164v-64z" />
    <glyph glyph-name="florin.lf" 
d="M11 -144q28 -6 49 -6q38 0 52 24.5t21 86.5l42 363h-84v68h91l14 122q9 78 49.5 119.5t105.5 41.5q58 0 118 -30l-32 -60q-31 22 -80 22q-47 0 -67 -26t-26 -84l-12 -105h126v-68h-133l-43 -380q-9 -78 -45 -120t-88 -42q-34 0 -74 11z" />
    <glyph glyph-name="afii61352.lf" horiz-adv-x="1122" 
d="M650 0h-56l-417 562v-562h-70v700h55l418 -563v563h70v-700zM918 704q72 0 121.5 -51.5t49.5 -126.5t-49.5 -126.5t-121.5 -51.5t-121.5 51.5t-49.5 126.5t49.5 126.5t121.5 51.5zM1031 526q0 53 -32 88.5t-81 35.5t-81 -35.5t-32 -88.5t32 -88.5t81 -35.5t81 35.5
t32 88.5z" />
    <glyph glyph-name="percent.lf" horiz-adv-x="849" 
d="M63 551q0 65 44 110t107 45t107.5 -45.5t44.5 -109.5t-44.5 -109t-107.5 -45t-107 45t-44 109zM120 551q0 -40 27.5 -68.5t66.5 -28.5q40 0 67.5 28t27.5 69t-27.5 69.5t-67.5 28.5q-39 0 -66.5 -28.5t-27.5 -69.5zM483 148q0 65 44 110t107 45t107.5 -45.5t44.5 -109.5
t-44.5 -109t-107.5 -45t-107 45t-44 109zM540 148q0 -40 27.5 -68.5t66.5 -28.5q40 0 67.5 28t27.5 69t-27.5 69.5t-67.5 28.5q-39 0 -66.5 -28.5t-27.5 -69.5zM650 709l46 -34l-497 -684l-46 34z" />
    <glyph glyph-name="perthousand.lf" horiz-adv-x="1234" 
d="M63 551q0 65 44 110t107 45t107.5 -45.5t44.5 -109.5t-44.5 -109t-107.5 -45t-107 45t-44 109zM120 551q0 -40 27.5 -68.5t66.5 -28.5q40 0 67.5 28t27.5 69t-27.5 69.5t-67.5 28.5q-39 0 -66.5 -28.5t-27.5 -69.5zM483 148q0 65 44 110t107 45t107.5 -45.5t44.5 -109.5
t-44.5 -109t-107.5 -45t-107 45t-44 109zM540 148q0 -40 27.5 -68.5t66.5 -28.5q40 0 67.5 28t27.5 69t-27.5 69.5t-67.5 28.5q-39 0 -66.5 -28.5t-27.5 -69.5zM868 148q0 65 44 110t107 45t107.5 -45.5t44.5 -109.5t-44.5 -109t-107.5 -45t-107 45t-44 109zM925 148
q0 -40 27.5 -68.5t66.5 -28.5q40 0 67.5 28t27.5 69t-27.5 69.5t-67.5 28.5q-39 0 -66.5 -28.5t-27.5 -69.5zM650 709l46 -34l-497 -684l-46 34z" />
    <glyph glyph-name="zero.osf" horiz-adv-x="598" 
d="M299 500q105 0 180 -76t75 -180t-75 -180t-180 -76t-180 76t-75 180t75 180t180 76zM299 54q76 0 127.5 55t51.5 135t-51.5 135t-127.5 55t-128 -55t-52 -135t52 -135t128 -55z" />
    <glyph glyph-name="one.osf" horiz-adv-x="339" 
d="M234 0h-73v409q-38 -19 -103 -45v69q80 39 129 67h47v-500z" />
    <glyph glyph-name="two.osf" horiz-adv-x="493" 
d="M125 341l-69 24q15 60 66 97.5t115 37.5q73 0 122 -43t49 -118q0 -41 -19 -78t-57.5 -71t-78.5 -60.5t-100 -61.5h304v-68h-399v85q135 84 204 143.5t69 113.5q0 44 -25.5 67t-71.5 23q-40 0 -70 -25t-39 -66z" />
    <glyph glyph-name="three.osf" horiz-adv-x="510" 
d="M142 130l2 77q65 0 104 9q41 10 70.5 39.5t29.5 71.5q0 46 -36 75.5t-86 29.5q-85 0 -120 -73l-64 28q22 53 73 83t113 30q78 0 136 -47.5t58 -126.5q0 -48 -23.5 -87t-67.5 -59q55 -16 89 -63t34 -105q0 -85 -61 -142.5t-154 -57.5q-132 0 -204 100l51 35
q47 -68 144 -68q61 0 105 34t44 93q0 60 -47.5 95t-122.5 35q-27 0 -67 -6z" />
    <glyph glyph-name="four.osf" horiz-adv-x="538" 
d="M424 -180h-73v180h-336v85q154 175 327 403h82v-420h95v-68h-95v-180zM351 394q-53 -74 -133 -171.5t-132 -154.5h265v326z" />
    <glyph glyph-name="five.osf" horiz-adv-x="492" 
d="M65 145q6 59 23 343h331v-68h-265q-4 -122 -13 -212q42 26 107 26q87 0 148.5 -59.5t61.5 -150.5q0 -85 -62.5 -148.5t-154.5 -63.5q-59 0 -112.5 26t-86.5 75l55 39q58 -72 130 -72q63 0 109.5 41.5t46.5 104.5q0 61 -42.5 100.5t-105.5 39.5q-65 0 -115 -44z" />
    <glyph glyph-name="six.osf" horiz-adv-x="530" 
d="M393 630q-229 -107 -266 -299q69 83 166 83q84 0 138 -63t54 -152q0 -85 -60 -148t-150 -63q-103 0 -166.5 78t-63.5 182q0 151 90 271t228 176zM120 238q4 -78 41.5 -130t112.5 -52q62 0 99 42.5t37 108.5q0 58 -34.5 98.5t-92.5 40.5q-50 0 -92.5 -29.5t-70.5 -78.5z
" />
    <glyph glyph-name="seven.osf" horiz-adv-x="442" 
d="M420 488v-59q-145 -302 -278 -622l-68 30q63 148 267 583h-328v68h407z" />
    <glyph glyph-name="eight.osf" horiz-adv-x="544" 
d="M373 348q50 -23 81.5 -67t31.5 -100q0 -82 -60.5 -137.5t-153.5 -55.5t-153.5 55.5t-60.5 137.5q0 56 31.5 100t81.5 67q-93 51 -93 147q0 77 54.5 129t139.5 52t139.5 -52t54.5 -129q0 -96 -93 -147zM272 56q59 0 99 36t40 91q0 52 -40.5 89t-98.5 37t-98.5 -37
t-40.5 -89q0 -55 40 -91t99 -36zM272 377q49 0 85 35t36 82q0 49 -35.5 81.5t-85.5 32.5t-85.5 -32.5t-35.5 -81.5q0 -47 36 -82t85 -35z" />
    <glyph glyph-name="nine.osf" horiz-adv-x="530" 
d="M137 -142q229 107 266 299q-69 -83 -166 -83q-84 0 -138 63t-54 152q0 85 60 148t150 63q103 0 166.5 -78t63.5 -182q0 -151 -90 -271t-228 -176zM410 250q-4 78 -41.5 130t-112.5 52q-62 0 -99 -42.5t-37 -108.5q0 -58 34.5 -98.5t92.5 -40.5q50 0 92.5 29.5t70.5 78.5z
" />
    <glyph glyph-name="dollar.osf" 
d="M41 81l51 51q75 -80 178 -80q37 0 70 11.5t59 42t26 76.5q0 24 -9.5 44t-21.5 32.5t-37.5 26t-41 19.5t-48.5 18q-36 13 -55.5 20.5t-49 24t-44.5 34t-27 45.5t-12 62q0 70 49.5 116.5t126.5 50.5v95h54v-97q83 -6 160 -60l-46 -53q-53 50 -144 50q-52 0 -91.5 -25.5
t-39.5 -76.5q0 -14 4.5 -27t10 -22t18.5 -18.5t21 -15t27.5 -13.5t28 -11.5t32.5 -11.5t32 -11q39 -14 65 -27t53.5 -34.5t41.5 -52.5t14 -72q0 -85 -53.5 -138t-137.5 -64v-96h-54v94q-114 1 -210 93z" />
    <glyph glyph-name="Euro.osf" horiz-adv-x="650" 
d="M465 224h-291q26 -79 90.5 -123t156.5 -44q93 0 163 42l37 -56q-86 -55 -197 -55q-122 0 -208.5 62.5t-116.5 173.5h-91v64h80q-2 28 -2 45q0 14 2 42h-80v64h90q29 111 113.5 174t209.5 63q108 0 179 -44l-32 -58q-57 33 -147 33q-94 0 -158.5 -44t-89.5 -124h292v-64
h-305q-2 -14 -2 -42q0 -17 2 -45h305v-64z" />
    <glyph glyph-name="cent.osf" 
d="M476 109q-59 -41 -127 -42v-85h-55v89q-94 16 -151.5 85.5t-57.5 166.5q0 96 58 166t151 86v88h55v-84q62 -3 114 -33l-25 -57q-44 28 -104 28q-77 0 -128 -56t-51 -138t49 -138t131 -56q62 0 106 32z" />
    <glyph glyph-name="sterling.osf" 
d="M476 0h-392v68h58v256h-58v68h58v65q0 64 25.5 114.5t70.5 77.5q44 27 104 27q69 0 131 -35l-31 -61q-44 28 -100 28q-46 0 -74 -23q-53 -42 -53 -160v-33h135v-68h-135v-256h261v-68z" />
    <glyph glyph-name="yen.osf" 
d="M484 247h-174v-59h174v-64h-177v-124h-69v124h-177v64h174v59h-174v64h165l-198 352h85l164 -301h2l159 301h82l-200 -352h164v-64z" />
    <glyph glyph-name="florin.osf" 
d="M11 -144q28 -6 49 -6q38 0 52 24.5t21 86.5l42 363h-84v68h91l14 122q9 78 49.5 119.5t105.5 41.5q58 0 118 -30l-32 -60q-31 22 -80 22q-47 0 -67 -26t-26 -84l-12 -105h126v-68h-133l-43 -380q-9 -78 -45 -120t-88 -42q-34 0 -74 11z" />
    <glyph glyph-name="afii61352.osf" horiz-adv-x="1122" 
d="M650 0h-56l-417 562v-562h-70v700h55l418 -563v563h70v-700zM918 704q72 0 121.5 -51.5t49.5 -126.5t-49.5 -126.5t-121.5 -51.5t-121.5 51.5t-49.5 126.5t49.5 126.5t121.5 51.5zM1031 526q0 53 -32 88.5t-81 35.5t-81 -35.5t-32 -88.5t32 -88.5t81 -35.5t81 35.5
t32 88.5z" />
    <glyph glyph-name="percent.osf" horiz-adv-x="849" 
d="M63 551q0 65 44 110t107 45t107.5 -45.5t44.5 -109.5t-44.5 -109t-107.5 -45t-107 45t-44 109zM120 551q0 -40 27.5 -68.5t66.5 -28.5q40 0 67.5 28t27.5 69t-27.5 69.5t-67.5 28.5q-39 0 -66.5 -28.5t-27.5 -69.5zM483 148q0 65 44 110t107 45t107.5 -45.5t44.5 -109.5
t-44.5 -109t-107.5 -45t-107 45t-44 109zM540 148q0 -40 27.5 -68.5t66.5 -28.5q40 0 67.5 28t27.5 69t-27.5 69.5t-67.5 28.5q-39 0 -66.5 -28.5t-27.5 -69.5zM650 709l46 -34l-497 -684l-46 34z" />
    <glyph glyph-name="perthousand.osf" horiz-adv-x="1234" 
d="M63 551q0 65 44 110t107 45t107.5 -45.5t44.5 -109.5t-44.5 -109t-107.5 -45t-107 45t-44 109zM120 551q0 -40 27.5 -68.5t66.5 -28.5q40 0 67.5 28t27.5 69t-27.5 69.5t-67.5 28.5q-39 0 -66.5 -28.5t-27.5 -69.5zM483 148q0 65 44 110t107 45t107.5 -45.5t44.5 -109.5
t-44.5 -109t-107.5 -45t-107 45t-44 109zM540 148q0 -40 27.5 -68.5t66.5 -28.5q40 0 67.5 28t27.5 69t-27.5 69.5t-67.5 28.5q-39 0 -66.5 -28.5t-27.5 -69.5zM868 148q0 65 44 110t107 45t107.5 -45.5t44.5 -109.5t-44.5 -109t-107.5 -45t-107 45t-44 109zM925 148
q0 -40 27.5 -68.5t66.5 -28.5q40 0 67.5 28t27.5 69t-27.5 69.5t-67.5 28.5q-39 0 -66.5 -28.5t-27.5 -69.5zM650 709l46 -34l-497 -684l-46 34z" />
    <glyph glyph-name="zero.slash" 
d="M275 676q109 0 169.5 -91.5t60.5 -252.5t-60.5 -252.5t-169.5 -91.5t-169.5 91.5t-60.5 252.5t60.5 252.5t169.5 91.5zM275 608q-70 0 -110 -61.5t-44 -180.5h308q-5 120 -44.5 181t-109.5 61zM275 56q70 0 109.5 61t44.5 181h-308q4 -120 44 -181t110 -61z" />
    <glyph glyph-name="zero.tf" 
d="M275 676q109 0 169.5 -91.5t60.5 -252.5t-60.5 -252.5t-169.5 -91.5t-169.5 91.5t-60.5 252.5t60.5 252.5t169.5 91.5zM275 608q-75 0 -115 -70t-40 -206t40 -206t115 -70t115 70t40 206t-40 206t-115 70z" />
    <glyph glyph-name="one.tf" 
d="M121 0v68h158v518q-82 -43 -179 -82v73q96 40 190 87h62v-596h136v-68h-367z" />
    <glyph glyph-name="two.tf" 
d="M83 0v74q159 170 238 289q55 81 55 142q0 45 -34 74t-81 29q-45 0 -79 -29t-38 -75l-71 15q7 68 62.5 112.5t128.5 44.5q74 0 131.5 -49.5t57.5 -124.5q0 -77 -66 -173q-102 -146 -211 -261h316v-68h-409z" />
    <glyph glyph-name="three.tf" 
d="M167 306l2 77q65 0 104 9q41 10 70.5 39.5t29.5 71.5q0 46 -36 75.5t-86 29.5q-85 0 -120 -73l-64 28q22 53 73 83t113 30q78 0 136 -47.5t58 -126.5q0 -48 -23.5 -87t-67.5 -59q55 -16 89 -63t34 -105q0 -85 -61 -142.5t-154 -57.5q-132 0 -204 100l51 35
q47 -68 144 -68q61 0 105 34t44 93q0 60 -47.5 95t-122.5 35q-26 0 -67 -6z" />
    <glyph glyph-name="four.tf" 
d="M512 185h-99v-185h-73v185h-303v78q123 157 298 401h78v-416h99v-63zM340 563q-93 -138 -234 -315h234v315z" />
    <glyph glyph-name="five.tf" 
d="M94 321q6 59 23 343h331v-68h-265q-4 -122 -13 -212q42 26 107 26q87 0 148.5 -59.5t61.5 -150.5q0 -85 -62.5 -148.5t-154.5 -63.5q-59 0 -112.5 26t-86.5 75l55 39q58 -72 130 -72q63 0 109.5 41.5t46.5 104.5q0 61 -42.5 100.5t-105.5 39.5q-65 0 -115 -44z" />
    <glyph glyph-name="six.tf" 
d="M403 630q-229 -107 -266 -299q69 83 166 83q84 0 138 -63t54 -152q0 -85 -60 -148t-150 -63q-103 0 -166.5 78t-63.5 182q0 151 90 271t228 176zM130 238q4 -78 41.5 -130t112.5 -52q62 0 99 42.5t37 108.5q0 58 -34.5 98.5t-92.5 40.5q-50 0 -92.5 -29.5t-70.5 -78.5z
" />
    <glyph glyph-name="seven.tf" 
d="M466 664v-59q-145 -302 -278 -622l-68 30q63 148 267 583h-328v68h407z" />
    <glyph glyph-name="eight.tf" 
d="M376 348q50 -23 81.5 -67t31.5 -100q0 -82 -60.5 -137.5t-153.5 -55.5t-153.5 55.5t-60.5 137.5q0 56 31.5 100t81.5 67q-93 51 -93 147q0 77 54.5 129t139.5 52t139.5 -52t54.5 -129q0 -96 -93 -147zM275 56q59 0 99 36t40 91q0 52 -40.5 89t-98.5 37t-98.5 -37
t-40.5 -89q0 -55 40 -91t99 -36zM275 377q49 0 85 35t36 82q0 49 -35.5 81.5t-85.5 32.5t-85.5 -32.5t-35.5 -81.5q0 -47 36 -82t85 -35z" />
    <glyph glyph-name="nine.tf" 
d="M147 34q229 107 266 299q-69 -83 -166 -83q-84 0 -138 63t-54 152q0 85 60 148t150 63q103 0 166.5 -78t63.5 -182q0 -151 -90 -271t-228 -176zM420 426q-4 78 -41.5 130t-112.5 52q-62 0 -99 -42.5t-37 -108.5q0 -58 34.5 -98.5t92.5 -40.5q50 0 92.5 29.5t70.5 78.5z
" />
    <glyph glyph-name="dollar.tf" 
d="M41 81l51 51q75 -80 178 -80q37 0 70 11.5t59 42t26 76.5q0 24 -9.5 44t-21.5 32.5t-37.5 26t-41 19.5t-48.5 18q-36 13 -55.5 20.5t-49 24t-44.5 34t-27 45.5t-12 62q0 70 49.5 116.5t126.5 50.5v95h54v-97q83 -6 160 -60l-46 -53q-53 50 -144 50q-52 0 -91.5 -25.5
t-39.5 -76.5q0 -14 4.5 -27t10 -22t18.5 -18.5t21 -15t27.5 -13.5t28 -11.5t32.5 -11.5t32 -11q39 -14 65 -27t53.5 -34.5t41.5 -52.5t14 -72q0 -85 -53.5 -138t-137.5 -64v-96h-54v94q-114 1 -210 93z" />
    <glyph glyph-name="Euro.tf" 
d="M22 380v63h81q19 111 76 172t145 61q131 0 190 -128l-67 -26q-39 86 -123 86q-116 0 -146 -165h201v-63h-209q-1 -15 -1 -48q0 -30 1 -44h209v-63h-202q28 -169 147 -169q101 0 137 124l68 -26q-26 -80 -78.5 -123t-126.5 -43q-89 0 -146.5 62t-75.5 175h-80v63h73
q-1 14 -1 44q0 32 1 48h-73z" />
    <glyph glyph-name="cent.tf" 
d="M476 109q-59 -41 -127 -42v-85h-55v89q-94 16 -151.5 85.5t-57.5 166.5q0 96 58 166t151 86v88h55v-84q62 -3 114 -33l-25 -57q-44 28 -104 28q-77 0 -128 -56t-51 -138t49 -138t131 -56q62 0 106 32z" />
    <glyph glyph-name="sterling.tf" 
d="M476 0h-392v68h58v256h-58v68h58v65q0 64 25.5 114.5t70.5 77.5q44 27 104 27q69 0 131 -35l-31 -61q-44 28 -100 28q-46 0 -74 -23q-53 -42 -53 -160v-33h135v-68h-135v-256h261v-68z" />
    <glyph glyph-name="yen.tf" 
d="M484 247h-174v-59h174v-64h-177v-124h-69v124h-177v64h174v59h-174v64h165l-198 352h85l164 -301h2l159 301h82l-200 -352h164v-64z" />
    <glyph glyph-name="florin.tf" 
d="M11 -144q28 -6 49 -6q38 0 52 24.5t21 86.5l42 363h-84v68h91l14 122q9 78 49.5 119.5t105.5 41.5q58 0 118 -30l-32 -60q-31 22 -80 22q-47 0 -67 -26t-26 -84l-12 -105h126v-68h-133l-43 -380q-9 -78 -45 -120t-88 -42q-34 0 -74 11z" />
    <glyph glyph-name="afii61352.tf" horiz-adv-x="1122" 
d="M650 0h-56l-417 562v-562h-70v700h55l418 -563v563h70v-700zM918 704q72 0 121.5 -51.5t49.5 -126.5t-49.5 -126.5t-121.5 -51.5t-121.5 51.5t-49.5 126.5t49.5 126.5t121.5 51.5zM1031 526q0 53 -32 88.5t-81 35.5t-81 -35.5t-32 -88.5t32 -88.5t81 -35.5t81 35.5
t32 88.5z" />
    <glyph glyph-name="percent.tf" horiz-adv-x="849" 
d="M63 551q0 65 44 110t107 45t107.5 -45.5t44.5 -109.5t-44.5 -109t-107.5 -45t-107 45t-44 109zM120 551q0 -40 27.5 -68.5t66.5 -28.5q40 0 67.5 28t27.5 69t-27.5 69.5t-67.5 28.5q-39 0 -66.5 -28.5t-27.5 -69.5zM483 148q0 65 44 110t107 45t107.5 -45.5t44.5 -109.5
t-44.5 -109t-107.5 -45t-107 45t-44 109zM540 148q0 -40 27.5 -68.5t66.5 -28.5q40 0 67.5 28t27.5 69t-27.5 69.5t-67.5 28.5q-39 0 -66.5 -28.5t-27.5 -69.5zM650 709l46 -34l-497 -684l-46 34z" />
    <glyph glyph-name="perthousand.tf" horiz-adv-x="1234" 
d="M63 551q0 65 44 110t107 45t107.5 -45.5t44.5 -109.5t-44.5 -109t-107.5 -45t-107 45t-44 109zM120 551q0 -40 27.5 -68.5t66.5 -28.5q40 0 67.5 28t27.5 69t-27.5 69.5t-67.5 28.5q-39 0 -66.5 -28.5t-27.5 -69.5zM483 148q0 65 44 110t107 45t107.5 -45.5t44.5 -109.5
t-44.5 -109t-107.5 -45t-107 45t-44 109zM540 148q0 -40 27.5 -68.5t66.5 -28.5q40 0 67.5 28t27.5 69t-27.5 69.5t-67.5 28.5q-39 0 -66.5 -28.5t-27.5 -69.5zM868 148q0 65 44 110t107 45t107.5 -45.5t44.5 -109.5t-44.5 -109t-107.5 -45t-107 45t-44 109zM925 148
q0 -40 27.5 -68.5t66.5 -28.5q40 0 67.5 28t27.5 69t-27.5 69.5t-67.5 28.5q-39 0 -66.5 -28.5t-27.5 -69.5zM650 709l46 -34l-497 -684l-46 34z" />
    <glyph glyph-name="zeroslash.tosf" 
d="M275 500q107 0 171 -77.5t64 -178.5t-64 -178.5t-171 -77.5t-171 77.5t-64 178.5t64 178.5t171 77.5zM275 56q65 0 106.5 44t51.5 110h-316q10 -66 51.5 -110t106.5 -44zM275 432q-65 0 -106.5 -44t-51.5 -110h316q-10 66 -51.5 110t-106.5 44z" />
    <glyph glyph-name="zero.tosf" 
d="M275 500q107 0 171 -77.5t64 -178.5t-64 -178.5t-171 -77.5t-171 77.5t-64 178.5t64 178.5t171 77.5zM275 432q-74 0 -117 -55.5t-43 -132.5t43 -132.5t117 -55.5t117 55.5t43 132.5t-43 132.5t-117 55.5z" />
    <glyph glyph-name="one.tosf" 
d="M121 0v68h158v354q-82 -43 -179 -82v73q96 40 190 87h62v-432h136v-68h-367z" />
    <glyph glyph-name="two.tosf" 
d="M157 341l-69 24q15 60 66 97.5t115 37.5q73 0 122 -43t49 -118q0 -41 -19 -78t-57.5 -71t-78.5 -60.5t-100 -61.5h304v-68h-399v85q135 84 204 143.5t69 113.5q0 44 -25.5 67t-71.5 23q-40 0 -70 -25t-39 -66z" />
    <glyph glyph-name="three.tosf" 
d="M167 130l2 77q65 0 104 9q41 10 70.5 39.5t29.5 71.5q0 46 -36 75.5t-86 29.5q-85 0 -120 -73l-64 28q22 53 73 83t113 30q78 0 136 -47.5t58 -126.5q0 -48 -23.5 -87t-67.5 -59q55 -16 89 -63t34 -105q0 -85 -61 -142.5t-154 -57.5q-132 0 -204 100l51 35
q47 -68 144 -68q61 0 105 34t44 93q0 60 -47.5 95t-122.5 35q-26 0 -67 -6z" />
    <glyph glyph-name="four.tosf" 
d="M429 -180h-73v180h-336v85q154 175 327 403h82v-420h95v-68h-95v-180zM356 394q-53 -74 -133 -171.5t-132 -154.5h265v326z" />
    <glyph glyph-name="five.tosf" 
d="M94 145q6 59 23 343h331v-68h-265q-4 -122 -13 -212q42 26 107 26q87 0 148.5 -59.5t61.5 -150.5q0 -85 -62.5 -148.5t-154.5 -63.5q-59 0 -112.5 26t-86.5 75l55 39q58 -72 130 -72q63 0 109.5 41.5t46.5 104.5q0 61 -42.5 100.5t-105.5 39.5q-65 0 -115 -44z" />
    <glyph glyph-name="six.tosf" 
d="M403 630q-229 -107 -266 -299q69 83 166 83q84 0 138 -63t54 -152q0 -85 -60 -148t-150 -63q-103 0 -166.5 78t-63.5 182q0 151 90 271t228 176zM130 238q4 -78 41.5 -130t112.5 -52q62 0 99 42.5t37 108.5q0 58 -34.5 98.5t-92.5 40.5q-50 0 -92.5 -29.5t-70.5 -78.5z
" />
    <glyph glyph-name="seven.tosf" 
d="M466 488v-59q-145 -302 -278 -622l-68 30q63 148 267 583h-328v68h407z" />
    <glyph glyph-name="eight.tosf" 
d="M376 348q50 -23 81.5 -67t31.5 -100q0 -82 -60.5 -137.5t-153.5 -55.5t-153.5 55.5t-60.5 137.5q0 56 31.5 100t81.5 67q-93 51 -93 147q0 77 54.5 129t139.5 52t139.5 -52t54.5 -129q0 -96 -93 -147zM275 56q59 0 99 36t40 91q0 52 -40.5 89t-98.5 37t-98.5 -37
t-40.5 -89q0 -55 40 -91t99 -36zM275 377q49 0 85 35t36 82q0 49 -35.5 81.5t-85.5 32.5t-85.5 -32.5t-35.5 -81.5q0 -47 36 -82t85 -35z" />
    <glyph glyph-name="nine.tosf" 
d="M147 -142q229 107 266 299q-69 -83 -166 -83q-84 0 -138 63t-54 152q0 85 60 148t150 63q103 0 166.5 -78t63.5 -182q0 -151 -90 -271t-228 -176zM420 250q-4 78 -41.5 130t-112.5 52q-62 0 -99 -42.5t-37 -108.5q0 -58 34.5 -98.5t92.5 -40.5q50 0 92.5 29.5t70.5 78.5z
" />
    <glyph glyph-name="dollar.tosf" 
d="M41 81l51 51q75 -80 178 -80q37 0 70 11.5t59 42t26 76.5q0 24 -9.5 44t-21.5 32.5t-37.5 26t-41 19.5t-48.5 18q-36 13 -55.5 20.5t-49 24t-44.5 34t-27 45.5t-12 62q0 70 49.5 116.5t126.5 50.5v95h54v-97q83 -6 160 -60l-46 -53q-53 50 -144 50q-52 0 -91.5 -25.5
t-39.5 -76.5q0 -14 4.5 -27t10 -22t18.5 -18.5t21 -15t27.5 -13.5t28 -11.5t32.5 -11.5t32 -11q39 -14 65 -27t53.5 -34.5t41.5 -52.5t14 -72q0 -85 -53.5 -138t-137.5 -64v-96h-54v94q-114 1 -210 93z" />
    <glyph glyph-name="Euro.tosf" 
d="M22 380v63h81q19 111 76 172t145 61q131 0 190 -128l-67 -26q-39 86 -123 86q-116 0 -146 -165h201v-63h-209q-1 -15 -1 -48q0 -30 1 -44h209v-63h-202q28 -169 147 -169q101 0 137 124l68 -26q-26 -80 -78.5 -123t-126.5 -43q-89 0 -146.5 62t-75.5 175h-80v63h73
q-1 14 -1 44q0 32 1 48h-73z" />
    <glyph glyph-name="cent.tosf" 
d="M476 109q-59 -41 -127 -42v-85h-55v89q-94 16 -151.5 85.5t-57.5 166.5q0 96 58 166t151 86v88h55v-84q62 -3 114 -33l-25 -57q-44 28 -104 28q-77 0 -128 -56t-51 -138t49 -138t131 -56q62 0 106 32z" />
    <glyph glyph-name="sterling.tosf" 
d="M476 0h-392v68h58v256h-58v68h58v65q0 64 25.5 114.5t70.5 77.5q44 27 104 27q69 0 131 -35l-31 -61q-44 28 -100 28q-46 0 -74 -23q-53 -42 -53 -160v-33h135v-68h-135v-256h261v-68z" />
    <glyph glyph-name="yen.tosf" 
d="M484 247h-174v-59h174v-64h-177v-124h-69v124h-177v64h174v59h-174v64h165l-198 352h85l164 -301h2l159 301h82l-200 -352h164v-64z" />
    <glyph glyph-name="florin.tosf" 
d="M11 -144q28 -6 49 -6q38 0 52 24.5t21 86.5l42 363h-84v68h91l14 122q9 78 49.5 119.5t105.5 41.5q58 0 118 -30l-32 -60q-31 22 -80 22q-47 0 -67 -26t-26 -84l-12 -105h126v-68h-133l-43 -380q-9 -78 -45 -120t-88 -42q-34 0 -74 11z" />
    <glyph glyph-name="afii61352.tosf" horiz-adv-x="1122" 
d="M650 0h-56l-417 562v-562h-70v700h55l418 -563v563h70v-700zM918 704q72 0 121.5 -51.5t49.5 -126.5t-49.5 -126.5t-121.5 -51.5t-121.5 51.5t-49.5 126.5t49.5 126.5t121.5 51.5zM1031 526q0 53 -32 88.5t-81 35.5t-81 -35.5t-32 -88.5t32 -88.5t81 -35.5t81 35.5
t32 88.5z" />
    <glyph glyph-name="percent.tosf" horiz-adv-x="849" 
d="M63 551q0 65 44 110t107 45t107.5 -45.5t44.5 -109.5t-44.5 -109t-107.5 -45t-107 45t-44 109zM120 551q0 -40 27.5 -68.5t66.5 -28.5q40 0 67.5 28t27.5 69t-27.5 69.5t-67.5 28.5q-39 0 -66.5 -28.5t-27.5 -69.5zM483 148q0 65 44 110t107 45t107.5 -45.5t44.5 -109.5
t-44.5 -109t-107.5 -45t-107 45t-44 109zM540 148q0 -40 27.5 -68.5t66.5 -28.5q40 0 67.5 28t27.5 69t-27.5 69.5t-67.5 28.5q-39 0 -66.5 -28.5t-27.5 -69.5zM650 709l46 -34l-497 -684l-46 34z" />
    <glyph glyph-name="perthousand.tosf" horiz-adv-x="1234" 
d="M63 551q0 65 44 110t107 45t107.5 -45.5t44.5 -109.5t-44.5 -109t-107.5 -45t-107 45t-44 109zM120 551q0 -40 27.5 -68.5t66.5 -28.5q40 0 67.5 28t27.5 69t-27.5 69.5t-67.5 28.5q-39 0 -66.5 -28.5t-27.5 -69.5zM483 148q0 65 44 110t107 45t107.5 -45.5t44.5 -109.5
t-44.5 -109t-107.5 -45t-107 45t-44 109zM540 148q0 -40 27.5 -68.5t66.5 -28.5q40 0 67.5 28t27.5 69t-27.5 69.5t-67.5 28.5q-39 0 -66.5 -28.5t-27.5 -69.5zM868 148q0 65 44 110t107 45t107.5 -45.5t44.5 -109.5t-44.5 -109t-107.5 -45t-107 45t-44 109zM925 148
q0 -40 27.5 -68.5t66.5 -28.5q40 0 67.5 28t27.5 69t-27.5 69.5t-67.5 28.5q-39 0 -66.5 -28.5t-27.5 -69.5zM650 709l46 -34l-497 -684l-46 34z" />
    <glyph glyph-name="a.smcp" horiz-adv-x="527" 
d="M12 0l214 558h75l214 -558h-74l-48 126h-266l-46 -126h-69zM260 485l-109 -296h219l-108 296h-2z" />
    <glyph glyph-name="b.smcp" horiz-adv-x="531" 
d="M98 0v558h131q84 0 140 -24q40 -20 58.5 -48t18.5 -75q0 -88 -100 -121q124 -34 124 -135q0 -96 -88 -132q-59 -23 -162 -23h-122zM397 161q0 43 -35 68t-97 25h-99v-191h49q92 0 131 18q51 23 51 80zM378 407q0 47 -38 67.5t-117 20.5h-57v-179h61q72 0 111.5 23.5
t39.5 67.5z" />
    <glyph glyph-name="c.smcp" horiz-adv-x="543" 
d="M122 279q0 -102 64 -164.5t165 -62.5q62 0 119 36l39 -53q-71 -47 -156 -47q-128 0 -216 82t-88 209q0 124 88.5 207.5t215.5 83.5q78 0 139 -39l-34 -54q-52 29 -107 29q-99 0 -164 -64t-65 -163z" />
    <glyph glyph-name="d.smcp" horiz-adv-x="612" 
d="M563 282q0 -109 -51 -175.5t-135 -87.5q-74 -19 -207 -19h-73v558h69q168 0 234 -27q163 -66 163 -249zM490 275q0 135 -105 187q-34 17 -80.5 24.5t-139.5 7.5v-430q109 0 168 14q157 35 157 197z" />
    <glyph glyph-name="e.smcp" horiz-adv-x="508" 
d="M427 0h-330v558h330v-64h-262v-175h262v-64h-262v-191h262v-64z" />
    <glyph glyph-name="f.smcp" horiz-adv-x="430" 
d="M376 242h-211v-242h-68v558h279v-64h-211v-188h211v-64z" />
    <glyph glyph-name="g.smcp" horiz-adv-x="646" 
d="M576 310v-217q-85 -105 -228 -105q-125 0 -212 82.5t-87 208.5q0 123 87.5 207t211.5 84q131 0 218 -103l-55 -43q-27 38 -70.5 60t-93.5 22q-97 0 -161 -65t-64 -162q0 -99 63 -163t162 -64t163 69v127h-136v62h202z" />
    <glyph glyph-name="h.smcp" horiz-adv-x="661" 
d="M564 0h-68v257h-331v-257h-68v558h68v-237h331v237h68v-558z" />
    <glyph glyph-name="i.smcp" horiz-adv-x="262" 
d="M165 0h-68v558h68v-558z" />
    <glyph glyph-name="j.smcp" horiz-adv-x="329" 
d="M28 1l15 58q18 -7 47 -7q43 0 59 23q15 21 15 89v394h68v-424q0 -66 -20 -96q-33 -50 -121 -50q-37 0 -63 13z" />
    <glyph glyph-name="k.smcp" horiz-adv-x="533" 
d="M165 0h-68v558h68v-303l254 303h85l-185 -215l203 -343h-82l-167 289l-108 -128v-161z" />
    <glyph glyph-name="l.smcp" horiz-adv-x="426" 
d="M416 0h-319v558h68v-494h251v-64z" />
    <glyph glyph-name="m.smcp" horiz-adv-x="789" 
d="M692 558v-558h-68v496l-202 -496h-60l-197 491v-491h-68v558h112l185 -465l185 465h113z" />
    <glyph glyph-name="msmcp.salt" horiz-adv-x="726" 
d="M629 0h-67v485l-172 -362h-55l-170 363v-486h-68v559h103l164 -346l164 346h101v-559z" />
    <glyph glyph-name="n.smcp" horiz-adv-x="664" 
d="M495 0l-334 461v-461h-64v558h72l334 -461v461h64v-558h-72z" />
    <glyph glyph-name="o.smcp" horiz-adv-x="684" 
d="M635 279q0 -122 -84.5 -206.5t-208.5 -84.5t-208.5 84.5t-84.5 206.5t84.5 206.5t208.5 84.5t208.5 -84.5t84.5 -206.5zM562 279q0 98 -62.5 162.5t-157.5 64.5t-157.5 -64.5t-62.5 -162.5t62.5 -162.5t157.5 -64.5t157.5 64.5t62.5 162.5z" />
    <glyph glyph-name="p.smcp" horiz-adv-x="504" 
d="M165 0h-68v558h95q80 0 113 -4q74 -9 121 -52.5t47 -111.5q0 -57 -36.5 -102t-94.5 -60q-44 -11 -132 -11h-45v-217zM400 387q0 75 -79 98q-31 9 -126 9h-30v-213h38q100 0 134 14q63 26 63 92z" />
    <glyph glyph-name="q.smcp" horiz-adv-x="684" 
d="M635 279q0 -127 -91 -213l81 -81l-41 -41l-87 87q-70 -43 -155 -43q-124 0 -208.5 84.5t-84.5 206.5t84.5 206.5t208.5 84.5t208.5 -84.5t84.5 -206.5zM412 199l85 -85q65 63 65 165q0 98 -62.5 162.5t-157.5 64.5t-157.5 -64.5t-62.5 -162.5t62.5 -162.5t157.5 -64.5
q60 0 108 27l-79 79z" />
    </font>
</defs>
</svg>
